HD-Vinyls 96/24 (Decca) Giacomo Puccini – La Fanciulla del West (Tebaldi/Del Monaco)

Reposted, now with FF links
Face it. All the best opera recordings were made between the mid 50s and early 70s. Fortunate for us that the final golden age of opera singing coincided with the onset of high fidelity stereo recording. This Fanciulla is a golden age performance.

# Composer: Giacomo Puccini
# Performer: Renata Tebaldi, Mario Del Monaco, Cornell MacNeil, Giorgio Tozzi
# Orchestra: Orchestra e coro dell’Accademia di Santa Cecilia of Rome
# Conductor: Franco Capuana
# Vinyls (1958)
# Number of Discs: 3
# Format: Flac
# Label: London (Decca)
# DR-Analysis: DR 13
# ASIN CD: B0000041UN

# Size: 2.58 GB
# Scan: yes
# Server: FileFactory


The Tebaldi performance is a treasure. The role of Dick Johnson seems like it was written precisely for the voice of Del Monaco. His miraculous high notes are among the wonders of recorded opera. Cornell MacNeil’s brief vocal prime was captured in this recording. This Fanciulla easily deserves a place alongside the Callas Tosca, the Bjoerling Boheme and the Caballe Manon Lescaut as the best Puccini recordings ever made.

No words can describe the pleasure of listening to Renata Tebaldi in this opera, perhaps Puccini’s most original work. It belongs in any Puccini-lover’s shelf. This is a wonderful recording, sounding astonishingly vivid and clear for its age. Tebaldi is in excellent form, portraying an idiomatic and believable Fanciulla and a very Italian one at that too, gracing the score with her sumptuous voice, like a torrent of molten gold, to suit the demands of this Wagnerian-like rôle. Her aristocratic phrasing and perfect diction are a lesson for any singer. Tebaldi delivers deep dramatic intensity in a spinto rôle that, in my opinion, fitted her like a glove. This is a recording I keep coming back to very often. We ought to be eternally indebted to Decca for recording Tebaldi in this rôle in her absolute prime. The rest of the cast is first-rate. Mario del Monaco, boasting a clarion-sounding, virile voice and electrifying phrasing, is a delight. Cornell McNeill too is in excellent voice and his singing is idiomatic and coloured. The orchestra at times seems to be a character in the opera in its own right.

This is the landmark recording of Puccini’s less popular La Fanciulla del West. It is quite different (more theatrical) from the other Puccini operas and it is in my opinion, experienced better live, in an opera house.The role of Minnie is arguably one of the most difficult roles to cast and especially to perform. It requires a powerful, firm voice but since it’s a Puccini role, the voice must be beautiful as well. Renata Tebaldi’s success in this role is legendary and she repeated the role on stage many times in the `60s. Here in 1958, she is caught in her absolute prime! The voice is glorious, hitting the high notes with amazing precision but always remaining warm and enchanting. As for acting skills, just purchase this set and listen to her… at any moment (the poker game for example!). In fact, most Tebaldi fans regard this as her best studio performance.

But is it just Tebaldi that makes this set a miracle? Mario del Monaco here proves once again that he is one of the greatest tenors ever! His stentorian voice might not be suitable for other Puccini roles (Pinkerton or Rodolfo for example) but as Johnson he is superb. His handsome low and electrifying high notes shine in this recording. Cornell MacNeil’s beautiful baritone voice is another asset of this set. In fact, EVERYONE in the cast is great but what truly amazes, is the chemistry between the performers! It is among the most “live” studio recordings I have ever listened to! The opera’s closing scene (last two tracks) is one of Puccini’s grandest achievements and these legendary singers make the best out of it. Maestro Capuana conducting is in the same league as his sublime soloists, which definitely helps us enjoy Puccini’s magic! The sound quality, by the way, is excellent.
Analyzed folder: /96kGP_FaDeWe_TebMDM/96k Puccini – Fanciulla del West – Tebaldi-Del Monaco
DR Peak RMS Filename
DR13 -1.22 dB -19.71 dB side1.wav
DR13 -0.96 dB -19.76 dB side2.wav
DR13 -1.03 dB -19.15 dB side3.wav
DR12 -1.16 dB -17.85 dB side4.wav
DR12 -0.76 dB -18.82 dB side5.wav
DR12 -1.13 dB -17.75 dB side6.wav
Number of files: 6
Official DR value: DR13

Ripping Infos

  • RCM: Okki Nokki
  • TT: Clearaudio Champion Level II
  • Cartridge: Limited Edition Denon DL103 SA
  • Phono amp: Pro-Ject Phono Box II
  • Pre Amp: Unison Research Unico Pre (Tube)
  • Finals: Opera Consonance 9.9 Mono (Tube)
  • Speakers: Dali Helikon 400
  • Connections: MIT Terminator, Audioquest Emerald, Audioquest Quartz
  • Software: iZotope RX Advanced v2.02, Adobe Audition CS 5.5, Twisted Wave 1.9
  • Light de-Clicking with iZotope, significant clicks manually removing, no De-Noising

If You hear some clicks and pops here and there, Who cares?
Id rather have a few light anomalies instead of destroying the music. Enjoy the music, not the ticks & pops.

  • DR-Analisys before converting to Flac
  • Converting Wave -> Flac: Twisted Wave 1.9
  • Artwork: Sony Alpha 350, Epson Perfection V750 Pro, Photoshop CS 5.5

If you like what i do, please consider that a little donation would be very appreciate. I reinvest all donations in maintenance of my rig, for purchasing cleaning solutions and, most important of all, purchasing of new vinyls.
Click on the “Donate”-button. Thank you very much !

Download from FileFactory
7 archives
PW: LaWally

5 thoughts on “HD-Vinyls 96/24 (Decca) Giacomo Puccini – La Fanciulla del West (Tebaldi/Del Monaco)

  1. The other site is down and i thought, no not now, Alf said the golden girl is coming next…
    Ha, and here it is! Thanks very much, Alf-!

    Recently listening to your Jacqueline du Pres rips, i was introduced to her a few weeks ago.

  2. tebaldi shines on vltra-bright, mdm smashes it down litterally on any key he hits and roma just carves it all out with any of the lights and the dusks at their place. superb

    …and natur.ly billions thanks for your precious deliver

Leave a Reply