High-Def Vinyls 96K24B (DGG) W. A. Mozart – Symphonies 32, 35, 36, 38, 39, 40, 41

front_small_boxset
Reposted, now with FF links
# Composer: Wolfgang Amadeus Mozart
# Orchestra: Berlin Philarmonic Orchestra
# Conductor: Herbert von Karajan
# Vinyls (1978)
# Number of Discs: 3
# Format: Flac
# Label: Deutsche Grammophon Gesellschaft
# DR-Analysis: DR 12
# ASIN CD: B001DCQIA0

# Size: 2.74 GB
# Scan: yes
# Server: FileFactory

I have listened to all or most of Mozart’s symphonies by many conductors and in my opinion, Herbert von Karajan conducting, is the best. But that’s the point isn’t it, my opinion. There are many different interpretations of Mozart and everyone has a preference. I constantly hear how Mozart’s music should be played with light and grace and the justice this does to his beautiful melodies and yes, there is truth in this. But, there is also an intensity in his music that I often hear and the person to bring that out is Karajan. In fact, that is the beauty of Mozart’s music, the fact that there is something in there for everyone, not to mention it no doubt speaks to his genius. I like Karajan’s aggressive approach to his symphonies here and the balance he strikes in each movement. Symphonies 39, 40 and 41 are my favourites. I never truly understood the depth of despair in Mozart’s symphonies until I heard Karajan’s version of these symphonies. The intensity of the playing in the first movement of no. 40 is a great example of this, as is the intensity and almost victorious last movement in no. 41. And of course I can’t help but feel that the contrapuntal technique in Mozart’s last movement in no. 41 was in tribute to Bach. If you are looking for moderate tempo, with the right intensity, then I recommend these symphonies by Karajan. You won’t be disappointed.

———————————————————————————————-
 Analyzed folder: /Volumes/96k WAM – Symphonies 32, 35, 36, 38, 39, 40, 41 – Karajan
———————————————————————————————-
 DR        Peak        RMS        Filename
———————————————————————————————-
 DR11        -1.73 dB     -16.68 dB     A1 Symphony No35 – Allegro con spirito.wav
 DR12        -5.74 dB     -23.90 dB     A2 Symphony No35 – Andante.wav
 DR14        -1.93 dB     -21.24 dB     A3 Symphony No35 – Menuetto-Trio-Manuetto.wav
 DR12        -1.67 dB     -18.27 dB     A4 Symphony No35 – Finale-Presto.wav

 DR12        -0.96 dB     -18.02 dB     A5 Symphony No32 – Allegro spiritoso-Andante-Tempo primo.wav

 DR12        -1.50 dB     -18.68 dB     B1 Symphony No36 – Allegro spiritoso.wav
 DR13        -3.67 dB     -21.98 dB     B2 Symphony No36 – Andante.wav
 DR13        -1.64 dB     -19.50 dB     B3 Symphony No36 – Menuetto-Trio-Manuetto.wav
 DR12        -0.93 dB     -17.24 dB     B4 Symphony No36 – Presto.wav

 DR13        -1.16 dB     -18.77 dB     C1 Symphony No38 – Adagio-Allegro.wav
 DR14        -3.15 dB     -23.05 dB     C2 Symphony No38 – Andante.wav
 DR11        -1.73 dB     -18.89 dB     C3 Symphony No38 – Finale-Presto.wav

 DR12        -1.25 dB     -17.42 dB     D1 Symphony No39 – Adagio-Allegro.wav
 DR12        -2.80 dB     -21.94 dB     D2 Symphony No39 – Andante con moto.wav
 DR12        -1.49 dB     -18.17 dB     D3 Symphony No39 – Menuetto-Allegretto-Trio-Manuetto.wav
 DR12        -0.76 dB     -16.70 dB     D4 Symphony No39 – Finale-Allegro.wav

 DR13        -0.88 dB     -17.64 dB     E1 Symphony No40 – Molto Allegro.wav
 DR14        -0.86 dB     -21.79 dB     E2 Symphony No40 – Andante.wav
 DR12        -2.09 dB     -17.97 dB     E4 Symphony No40 – Allegro assai.wav
 DR12        -1.73 dB     -18.41 dB     E3 Symphony No40 – Menuetto-Allegretto-Trio-Manuetto.wav

 DR12        -1.48 dB     -17.08 dB     F1 Symphony No41 – Allegro vivace.wav
 DR13        -4.72 dB     -24.00 dB     F2 Symphony No41 – Andante cantabile.wav
 DR12        -2.19 dB     -18.76 dB     F3 Symphony No41 – Menuetto-Allegretto-Trio-Manuetto.wav
 DR11        -0.89 dB     -15.22 dB     F4 Symphony No41 – Molto allegro.wav
———————————————————————————————-
 Number of files:    24
 Official DR value:    DR12
==============================================================================================

Credits

  • Composer: Wolfgang Amadeus Mozart
  • Orchestra: Berlin Philharmonic Orchestra
  • Conductor: Herbert von Karajan

 

Ripping Infos

  • RCM: Okki Nokki
  • TT: Clearaudio Champion Level II
  • System: Special Edition Denon DL 103
  • Phono stage: Pro-Ject Phono Box II
  • Pre Amp: Unison Research Unico Pre (Tube)
  • Finals: Opera Consonance 9.9 Mono (Tube)
  • Speakers: Dali Helikon 400
  • Connections: MIT Terminator, Audioquest Emerald, Audioquest Quartz
  • Software: iZotope RX Advanced v2.02, Adobe Audition CS 5.5, Twisted Wave 1.9
  • Light de-Clicking with ClickRepair, significant clicks manually removing, no De-Noising

If You hear some clicks and pops here and there, Who cares?
Id rather have a few light anomalies instead of destroying the music. Enjoy the music, not the ticks & pops.

  • DR-Analisys before converting to Flac
  • Converting Wave -> Flac: Twisted Wave 1.9
  • Artwork: Sony Alpha 350, Epson Perfection V750 Pro, Photoshop CS 5.5

DONATION !
If you like what i do, please consider that a little donation would be very appreciate. I reinvest all donations in maintenance of my rig, for purchasing cleaning solutions and, most important of all, purchasing of new vinyls.
Click on the “Donate”-button. Thank you very much !


Download from FileFactory
7 archives

PW: LaWally

28 thoughts on “High-Def Vinyls 96K24B (DGG) W. A. Mozart – Symphonies 32, 35, 36, 38, 39, 40, 41”

    1. Il “marchio” sulla cover è purtroppo necessario….ci sono molte persone, la fuori, davvero poco gentili che postano roba di altri (per se, niente di brutto) senza menzionare il “propietario” originale.

      Cmq, se conosci qualcuno che ci sa fare con Photoshop…. 😉

  1. Capisco, ma farlo un tantino più piccolo il marchio?
    Le copertine sono bellissime ed ad alta risoluzione, è un vero peccato…
    Grazie comunque per tutto il tuo splendido lavoro 😀 😀

  2. Mozart is my all time favourite. Thanks for this precious gift. This is first time I am downloading your stuff. Actually this is truly unputdownable.

  3. Hi,

    Very nice. Do you mind telling me which cartirdge / turntable you used for this please? Sorry to keep asking, but I am about to buy a cartridge for my new Project RPM 9 and I am finding your transcriptions helpful. Perhaps you could add a brief note to each listing containing this information?

    1. I made this with the Pro-ject turntable + Sumiko Evolution III and Pro-Ject Phonobox II. The phonobox II is really incredible, for only about 100$ the best you can get…and the Evo III (i use it for all my old vinyls) is really temperamentful, live-like…you get it for about 400-450 $

  4. Estaba en mi tienda de discos favorita de mi ciudad allá a finales de los 70 del siglo pasado mirando qué iba a ser mi próximo disco, un sitio acogedor e íntimo, cuando oigo que el dependiente le comenta a otra persona mientras saca el disco de la sinfonía Praga: ‘escucha esto’ -¿es nuevo? -Acabo de recibirlo’. Me aque sonido analógico me pareció de una belleza que aún perdura en mi recuerdo.
    Gracias por este aporte, te mereces mi reconocimiento y mi respeto por tu trabajo.

  5. Parece ser que Karajan tuvo problemas de tipo musical (que no de tipo técnico) a la hora que enfrentarse a las sinfonías de Mozart, al menos eso comentó Michael Glotz a José Luis Pérez de Arteaga en una entrevista. Y creo el sinfonismo de Brahms causaba a Karajan problemas similares, pues él mismo relató que hasta su grabación de los años 80 no consiguió averiguar cómo finalizar la 4ª de la manera que soñaba…

  6. Rach, these are fabulous accounts of Mozart’s late symphonies and great burns on your part. And as far as Karajan is concerned: He Is da MAN… 🙂
    Thank you so much and thank you for sharing your joy in your hobby with those of us who wish to listen. Take care, z

  7. Hi master of ripping, what about VinylStudio from Alpinesoft, for an absolute beginner? Thanks… p.s.
    This Mozart is a balsam for the soul

    1. puoi anche iscriverti sulla pagina di Adobe e scaricare 30 giorni in prova Audition…..ma forse è un tantinello complicato, se sei alle prime armi con questa materia 😉

Leave a Reply