Audiophile HD-Vinyl 96/24 (Telefunken) Georg Friedrich Telemann – Double Concertos (Harnoncourt)

Reposted, now with FF links

Sad news of today: Maestro Harnoncourt died yesterday, few months after leaving the rostrum in Dec. 2015 🙁



# Composer: Georg Philipp Telemann
# Orchestra: Concentus Musicus Wien
# Conductor: Nikolaus Harnoncourt
# Vinyls (1966)
# Format: Flac
# Number of discs: 1
# Label: Telefunken
# DR-Analysis: DR 13
# Size: 1.07 GB
# Scan: yes
# Server: FileFactory

Rip was made January 2011

Analyzed folder: /96kTel_DoubCo/96k Telemann Doppelkonzerte
DR        Peak        RMS        Filename
DR14        -0.53 dB     -18.48 dB     A1 Concert a 6, Flaute a Bec et Fagotto Concertato, 2 Violini, Viola et Cembalo, F-Dur.wav

DR14        -1.00 dB     -20.27 dB     A2 Concerto a 4 Violini Senza Basso, G-Dur.wav
DR10        -0.94 dB     -14.71 dB     B1 Ouverture a 5, Corne De Chasse, Violini Con Cembalo, F-Dur.wav
DR13        -1.17 dB     -18.09 dB     B2 Concerto a 3 Hautbois, 4 Violins Et Basse, B_Dur.wav
Number of files:    4
Official DR value:    DR13

Ripping Infos

  • RCM: Okki Nokki
  • TT: Clearaudio Champion Level II
  • Cartridge: Limited Edition Denon DL103 SA
  • Phono amp: Pro-Ject Phono Box II
  • Pre Amp: Unison Research Unico Pre (Tube)
  • Finals: Opera Consonance 9.9 Mono (Tube)
  • Speakers: Dali Helikon 400
  • Connections: MIT Terminator, Audioquest Emerald, Audioquest Quartz
  • Software: iZotope RX Advanced v2.02, Adobe Audition CS 5.5, Twisted Wave 1.9
  • Light de-Clicking with iZotopes, significant clicks manually removing, no De-Noising

If You hear some clicks and pops here and there, Who cares?
Id rather have a few light anomalies instead of destroying the music. Enjoy the music, not the ticks & pops.

  • DR-Analisys before converting to Flac
  • Converting Wave -> Flac: Twisted Wave 1.9
  • Artwork: Sony Alpha 350, Epson Perfection V750 Pro, Photoshop CS 5.5

If you like what i do, please consider that a little donation would be very appreciate. I reinvest all donations in maintenance of my rig, for purchasing cleaning solutions and, most important of all, purchasing of new vinyls.
Click on the “Donate”-button. Thank you very much !

Download from FileFactory
3 archives
PW: LaWally

31 thoughts on “Audiophile HD-Vinyl 96/24 (Telefunken) Georg Friedrich Telemann – Double Concertos (Harnoncourt)

  1. First you are sympathethic with our poor Italy…
    Then I find out you support my very same football club…
    Now this beauty…
    Thanx you very, very much

  2. Only now I found your website. Thanks for the rip of vinyl records.
    Unfortunately hotfile is dead: is there any chance to redo the links?

  3. Hello, FileFactory now with this nasty system put links that only premium users can use. could climb this magnificent LP on another server? thankful in advance
    and take this opportunity to thank you for sending the magnificent material. pity that your links filefactory no longer be available to users free

    • The links are always also for free users. You only have to be patient, when all slots are in use. Wait or buy a premium, no exclusion of free user.

  4. I love Telemann: wonderful Baroque!

    I love Whatever and Rach; and I love their incredible labors to have the best website in the world!

    Can you tell I like ya?

  5. RACH:

    this one got accidentally listed in the 24/192 section but is only 24/96. I noticed cad i’m always looking for new stuff in the 24/192 folder.

    btw the 24 192 offerings have ceased. I’m sad.

    Let’s be clear about one thing: we all here really, really, really like you RACH!?!?!?!?! LOL

  6. Thank YOU MASTER… I LOVE the music you put here and in HRM… May I please to post a vinyl rip of Vivaldi – Cello Concertos ?
    Best regards…

  7. Its been a while, Rach. But here I am again, starting over after a catastrophic hard drive crash and the subsequent loss of years of musical devotion (cue violins: *choose something apt*).

    Anyway, very pleased to find this Telemann here. So thanks for this, and for everything you make – and have made – available to us over the years.

    Best Wishes,

Leave a Reply