High-Definition Vinyls 96/24 (Decca) Giacomo Puccini – Manon Lescaut (Tebaldi/Del Monaco)

Reposted, now with FF links
This is really a very good recording, one of the best. Renata Tebaldi was a perfect Manon; she could sing as an angel, but also with great passion (Sola, perduta, abbandonata). Mario del Monaco was one of the best Des Grieux’s, perhaps more heroic in some moments, but his voice was always under perfect control. Truly, a “tenore robusto”.

# Composer: Giacomo Puccini
# Performer: Renata Tebaldi, Mario Del Monaco, Fernando Corena
# Orchestra: Accademia di Santa Cecilia, Rome
# Conductor: Francesco Molinari-Pradelli
# Vinyl (1954)
# Number of discs: 3
# Format: Flac
# Label: London (Decca)
# DR-Analysis: DR 13
# ASIN CD: B00000E4LA
# Size: 2.07 GB
# Scan: yes

# Server: FileFactory


This is a truly wonderful recording; and all-out winner.
Manon Lescaut is one of Puccini’s best works. The arias are beautiful, and the orchestration highly effective, and the drama is even fuller than La Boheme, if not as powerful as Tosca.
The cast in this recording is truly first class, with the ‘golden pair’ of the era Renata Tebaldi in the title role and Mario del Monaco as the hero, supported by Corena as Lescaut.
The choir and orchestra of Santa Cecilia Academy of Rome conducted by Pradelli poured forth typically the best of Italian classicism in this all-Italian performance.
Monaco is robust in tone, but his characterisation is fully in sync with the score, and he was in prime voice in this recording, so is Renata Tebaldi in the title role. His soft singing was exquisite and his overall interpretation exceedingly tasteful and in character, fully passionate and yet refined.
The two famous arias ‘In Quelle Trine Morbide’ and ‘Sola e Perduta Abbandonata’ are so well rendered by Tebaldi that you would have to hear them to believe. Tebaldi had none of her latter flatness here, and the voice was as pure and deep as a highland glacier lake.
The duets of Monaco and Tebaldi are again highlights of this recording. If you thought that Monaco was to stolid and ‘robust’, you’d have to listen this recording to remove that misconception about del Monaco.
The chorus were heavenly and Pradelli got the absolutely ‘right’ approach in conducting this work, bringing out the full colours and emotions with good detail and great musical flair.

Analyzed folder: /96kGP_MaLes_TebMDM/96k Puccini – Manon Lescaut – Tebaldi-Del Monaco
DR        Peak        RMS        Filename
DR12        -1.02 dB     -17.91 dB     side1.wav
DR14        -1.17 dB     -20.39 dB     side2.wav
DR14        -0.83 dB     -20.95 dB     side3.wav
DR12        -1.25 dB     -18.14 dB     side4.wav
DR14        -1.46 dB     -20.98 dB     side5.wav
DR13        -1.33 dB     -20.60 dB     side6.wav
Number of files:    6
Official DR value:    DR13


Ripping Infos

  • RCM: Okki Nokki
  • TT: Clearaudio Champion Level II
  • Cartridge: Limited Edition Denon DL103 SA
  • Phono amp: Pro-Ject Phono Box II
  • Pre Amp: Unison Research Unico Pre (Tube)
  • Finals: Opera Consonance 9.9 Mono (Tube)
  • Speakers: Dali Helikon 400
  • Connections: MIT Terminator, Audioquest Emerald, Audioquest Quartz
  • Software: iZotope RX Advanced v2.02, Adobe Audition CS 5.5, Twisted Wave 1.9
  • Light de-Clicking with iZotope, significant clicks manually removing, no De-Noising

If You hear some clicks and pops here and there, Who cares?
Id rather have a few light anomalies instead of destroying the music. Enjoy the music, not the ticks & pops.

  • DR-Analisys before converting to Flac
  • Converting Wave -> Flac: Twisted Wave 1.9
  • Artwork: Sony Alpha 350, Epson Perfection V750 Pro, Photoshop CS 5.5

If you like what i do, please consider that a little donation would be very appreciate. I reinvest all donations in maintenance of my rig, for purchasing cleaning solutions and, most important of all, purchasing of new vinyls.
Click on the “Donate”-button. Thank you very much !

Download from FileFactory
5 archives
PW: LaWally

14 thoughts on “High-Definition Vinyls 96/24 (Decca) Giacomo Puccini – Manon Lescaut (Tebaldi/Del Monaco)

  1. Hello Rachmaninov,

    I too am grateful for your Hi def Vinyls. The sonics are so clear and beautiful to my old ears. This Manon Lescaut is another that I owned when the vinyls were first released here in USA.

    Your tedius work is very much appreciated.

  2. Thank You. 1 question – if the original rip files were in wav format and they are FLAC now, did You make some adjustments, improvements or so on?

    Or nothing changed and these values for the peak and RMS stay the same?

    • no improvement was made, as far as I don’t remember what kind of improvement I made at its time…and now I didn’t had the time to re-hear it again before posting. So this 1:1 identical with the former upload, only not anymore in wav but in flac.

      • OK and thank You. It is perfect rip .-) and I did just wonder on that values or possible change in that conversion to FLAC. But, again, it is perfect in everything.

Leave a Reply