HD-Vinyls 96/24 (London/Decca) G. Verdi – Un Ballo In Maschera (Tebaldi/Pavarotti/Milnes)

Reposted, now with FF links
OMG !!! What a dream-team could have been happen – Tebaldi & Pavarotti ! A singer, a superstar, (her voice only a shadow of its glory) is going to left the scene, another singer is going to become a superstar !
Life can be very cruel to us operatics lovers !

# Composer: Giuseppe Verdi
# Performer: Renata Tebaldi, Luciano Pavarotti,  Sherrill Milnes, Regine Resnik, Helen Donath
# Orchestra: Accademia di Santa Cecilia, Rome
# Conductor: Bruno Bartoletti

# Vinyl (1971)
# Format: Flac
# Label: London (Decca)
# DR-Analysis: DR 11

# Size: 2.3 GB
# Scan: yes
# Server: FF

Analyzed folder: /Users/alfredo/Desktop/ HiResMusic/96k Verdi – Masked Ball – Tebaldi-Pavarotti
DR        Peak        RMS        Filename
DR12        -0.47 dB     -16.69 dB     sideA.wav
DR11        -0.22 dB     -16.57 dB     sideB.wav
DR11        -0.52 dB     -16.30 dB     sideC.wav
DR11        -0.33 dB     -15.56 dB     sideD.wav
DR11        -0.28 dB     -15.84 dB     sideE.wav
DR11        -0.09 dB     -16.63 dB     sideF.wav
Number of files:    6
Official DR value:    DR11


  • Composer: Giuseppe Verdi
  • Performers:,,,
  • Orchestra: Orchestra of the Accademia di Santa Cecilia di Roma
  • Conductor: Bruno Bartoletti

Ripping Infos

  • RCM: Okki Nokki
  • TT: Clearaudio Champion Level II
  • System: Special Edition Denon DL 103
  • Phono stage: Pro-Ject Phono Box II
  • Pre Amp: Unison Research Unico Pre (Tube)
  • Finals: Opera Consonance 9.9 Mono (Tube)
  • Speakers: Dali Helikon 400
  • Connections: MIT Terminator, Audioquest Emerald, Audioquest Quartz
  • Software: iZotope RX Advanced v2.02, Adobe Audition CS 5.5 -> Wave 32 bit/96 kHz
  • Light de-Clicking with ClickRepair, significant clicks manually removing, no De-Noising

You hear some clicks and pops here and there? Who cares?
I better let some light anomalies instead of destroying the music. Enjoy the music, not the ticks & pops.

  • DR-Analisys before converting to Flac
  • Converting Wave 32bit/96kHz -> Flac 24bit/96kHz: Twisted Wave
  • Artwork: Sony Alpha 350, Epson Perfection V750 Pro, Photoshop CS 5.5

If you like what i do, please consider that a little donation would be very appreciate. I reinvest all donations in maintenance of my rig, for purchasing cleaning solutions and, most important of all, purchasing of new vinyls.
Click on the “Donate”-button. Thank you very much !

Download fro
m FileFactory
6 archives

PW: LaWally

13 thoughts on “HD-Vinyls 96/24 (London/Decca) G. Verdi – Un Ballo In Maschera (Tebaldi/Pavarotti/Milnes)

      • It’s a pity to hear that. It seems impossible to get your any recording again, because I never succeed to download any file from FF, although I tried again and again.
        But first of all, what I’d like to do in Thanksgiving Day is to thank you, thanks for you giving us so many great recordings.
        God bless you, dear Rach!

  1. Pls, reload the sixth file, it dont works anymore…appairing teh following message.

    “Server Maintenance
    The server hosting this file is temporarily unavailable due to system maintenance. Please try again shortly.

    Please contact support if you require further assistance.”

    Thanks in advance

Leave a Reply