High-End HD-Vinyl 192/24 (Analogue Productions 200g) Nikolai Rimsky-Korsakov – Scheherazade (Reiner)

front-small-boxset
Almost raw, only few clicks manually removed and spaces btw. the tracks cleaned
Brand new vinyl, played here for the 1st time
Ladies and Gentlemen, here is the mother of all „Scheherazade“ recordings. At today, for more than half a century, no other production was able to beat Maestro Reiner and his Chicago Symphony Orchestra: good speed, real dramatical atmosphere, perfect tempo and a magnificent sound. This Analogue Productions Reissue on 200g is the best sounding version I ever heard.

# Composer: Nikolai Rimsky-Korsakov
# Orchestra: Chicago Symphony Orchestra
#Conductor: Fritz Reiner
# Vinyl (1960/2013)
# Number of discs: 1
# Format: Flac
# Label: RCA/Analogue Productions
# DR-Analysis: DR 12
# ASIN CD:
B000003FWQ
# Size: 1.87 GB
# Scan: yes
# Server: FileFactory


After 54 (!) years there is nothing new under the sun, the masters of recording productions from the golden age – 50s and 60s – knew how to do it:

THE MAGIC OF THE PERFECT SOUND

Listen to this and believe it: the recording was made in 1960. One of the most expensive vinyl records by RCA LIVING STEREO, if in near mint condition and early pressing.

“…The second movement is just ravishing in the beauty of the Chicago’s playing and Reiner’s romantic approach; there is some staccato triple-tonguing done by trumpeter Adolph Herseth in the fourth movement that should leave you, if not him, breathless. But let is just be said that, after you hear this, no other Scheherazade will ever replace it in your affections.”
HP’s The Golden Dozen LPs – Harry Pearson, The Absolute Sound, June/July 2007

Led with grand authority by Fritz Reiner, the Chicago’s brass and wind section play gloriously throughout, and the final movement of Scheherazade (we learn from the original producer [1960] in an accompanying essay) was recorded in one take–an almost unheard-of feat. This fast movement is taken at breakneck speed, with no loss of clarity or power, with the strings in the hands of magicians.

Tracklist

  Scheherazade
A1 The Sea And Sinbads Ship 9:02
A2 The Story Of The Kalender Prince 11:30
B1 The Young Prince And The Young Princess 11:55
B3 Festival In Bagdad – The Sea – The Ship Goes To Pieces On A Rock Surmounted By A Bronze Warrior 11:36

———————————————————————————————-
Analyzed folder: /192kNRK_Sch_Rei(AP200g)/192k Rimsky-Korsakov – Scheherazade – Fritz Reiner (Analogue Productions 200g)
———————————————————————————————-
DR        Peak        RMS        Filename
———————————————————————————————-
DR10        -0.95 dB     -16.20 dB     A1 Scheherazade – The Sea And Sinbads Ship.wav
DR12        -0.30 dB     -18.24 dB     A2 Scheherazade – The Story Of The Kalender Prince.wav
DR14        -2.22 dB     -23.03 dB     B1 Scheherazade – The Young Prince And The Young Princess.wav
DR12        -0.24 dB     -17.47 dB     B2 Scheherazade – Festival In Bagdad – The Sea – The Ship Goes To Pieces On A Rock Surmounted By A Bronze Warrior.wav
———————————————————————————————-
Number of files:    4
Official DR value:    DR12
==============================================================================================

 

Credits

  • Composed By – Nikolai Rimsky-Korsakov
  • Conductor – Fritz Reiner
  • Orchestra – Chicago Symphony Orchestra

Remastered and cut at 33 1/3 RPM by Ryan Smith at Sterling Sound
Lacquers plated by Gary Salstrom and pressed on 200-gram vinyl at Quality Record Pressings

 

Ripping Infos

Monitoring

If You hear some clicks and pops here and there, Who cares?
Id rather have a few light anomalies instead of destroying the music. Enjoy the music, not the ticks & pops.
I tend more and more, in the last time, to de-click with an automatic setting between 1.0 and 1.2 so you can say, my rips are like half rough rips.

  • Software: iZotope RX 3 Advanced v3.01, Adobe Audition CS 5.5, Twisted Wave 1.9
  • Very light de-clicking with iZotope, significant clicks manually removing, no de-noising
  • DR-Analisys before converting to Flac
  • Converting Wave -> Flac: Twisted Wave 1.9
  • Artwork: Sony Alpha 350, Epson Perfection V750 Pro, Photoshop CS 5.5

DONATION !
If you like what i do, please consider that a little donation would be very appreciate.
I reinvest all donations in maintenance of my rig, for purchasing cleaning solutions and, most important of all, purchasing of new vinyls.
Click on the “Donate”-button. Thank you very much !

Download from FileFactory
5 archives

PW: LaWally

 

16 thoughts on “High-End HD-Vinyl 192/24 (Analogue Productions 200g) Nikolai Rimsky-Korsakov – Scheherazade (Reiner)”

    1. does it happens, that you have a very good HiFi equipment? Otherwise you wouldn’t hear the difference. This rip is to the CD like a Ferrari to a BWM7 – both are cars, but no more.

      1. Thanks Rachmaninov. Yes, when listening to the CD version I feel that sounds “ok” but that’s like if I were losing something. 😉

        My equipment are in the middle, not hi-end, but with well made records I do listening improvements. I have a Pioneer A70 with built-in DAC and a SACD player also Pioneer.

        But now, I’m testing something different. I am converting 24/192 files into DSD files with Korg Audiogate. The CD/SACD player can read DSD files “natively” I think. All that I need is to burn these dsd files into a dvd-r disc. In my case, seems to be the best way to listening to high-quality rips because the built-in DAC of the amplifier it isn’t very good.

        Later I will share here my experience.

  1. Compared to the CD version here you can see a much more organized sound. The high frequencies are much more “listenable” and the sound around them is less noisy, less annoying and very natural. When the sound goes more poweful we can taste the details in the low-end frequencies.

    Yet, I feel that in some instruments the sound seems less high in terms of volume. Like if the CD version had some kind of “equalization” in certain parts.

    Thanks again!

  2. You’ve got it!
    Thank you, dear Alfredo! I’ve waited for this so long! There is a number of rips in the web, but I wanted only version by Rach, because this is a reference for me now.
    I know, you ripped this recording before, but I don’t believe much in Cesky sound and I didn’t DL it, since, even reissued, RCA LS pressing is better.
    As to the performance, it is the definitive Scheherazade! The only rival to Reiner is Sir Thomas Beecham.
    They say that Beecham’s version is adored by kids, hm, this version shall be appreciated by … adults. Anyway both recordings are equally great!

    1. Thank you…check my other “Scheherazade” by Darlington…is another real contendent to Reiner, although Reiner is unbeatable. Check also the Reissue NightOwl made some months ago…is really good.

Leave a Reply