HD-Vinyl 96/24 (EMI) Nikolai Rimsky-Korsakov – Scheherazade (Rostropowitsch)

This is really, really great. Bravo, Mr. Cello !
Reposted, now with FF links

# Composer: Nikolaj Rimsky-Korsakov
# Orchestra:  Orchestre de Paris
# Conductor: Mstistlaw Rostropowitsch
# Vinyl (1974)
# Number of Discs: 1
# Format: FLAC
# Label: EMI
# ASIN: B00000DOEG
# Size: 885 MB
# DR-Analysis: DR 14
# Scan: yes
# Server: FileFactory


Scheherazade, Symphonic Suite For Orchestra, Op. 35
A1 1. The Sea And Sinbad’s Ship
A2 2. The Story Of The Kalender Prince
B1 3. The Young Prince And The Young Princess
B2 4. Festival Of Bagdad_The Sea_The Ship Goes To Pieces On A Rock Surmounted By A Bronze Warrior_Conclusion

Analyzed folder: /Volumes/HDMUSIC/   Work on HiResMusic/96kRiKo_Sch_Rost/96k Rimsky-Korsakov – Scheherazade – Rostropovic
DR        Peak        RMS        Filename
DR12        -2.28 dB     -20.52 dB     A1 The Sea And Sinbad’s Ship.wav
DR15        -1.22 dB     -21.74 dB     A2 The Story Of The Kalender Prince.wav
DR15        -4.07 dB     -25.90 dB     B1 The Young Prince And The Young Princess.wav
DR13        -1.29 dB     -19.31 dB     B2 Festival Of Bagdad_The Sea_The Ship Goes To Pieces On A Rock Surmounted By A Bronze Warrior (Shipwreck)_Conclusion.wav
Number of files:    4
Official DR value:    DR14

Ripping Infos

  • RCM: Okki Nokki
  • TT: Clearaudio Champion Level II
  • System: Limited Edition Denon DL 103 SA
  • Phono stage: Pro-Ject Phono Box II
  • Pre Amp: Unison Research Unico Pre (Tube)
  • Finals: Opera Consonance 9.9 Mono (Tube)
  • Speakers: Dali Helikon 400
  • Connections: MIT Terminator, Audioquest Emerald, Audioquest Quartz
  • Software: iZotope RX Advanced v2.02, Adobe Audition CS 5.5, Twisted Wave 1.9
  • Light de-Clicking with iZotope, significant clicks manually removing, no De-Noising

If You hear some clicks and pops here and there, Who cares?
Id rather have a few light anomalies instead of destroying the music. Enjoy the music, not the ticks & pops.

  • DR-Analisys before converting to Flac
  • Converting Wave -> Flac: Twisted Wave 1.9
  • Artwork: Sony Alpha 350, Epson Perfection V750 Pro, Photoshop CS 5.5

If you like what i do, please consider that a little donation would be very appreciate. I reinvest all donations in maintenance of my rig, for purchasing cleaning solutions and, most important of all, purchasing of new vinyls.
Click on the “Donate”-button. Thank you very much !

Download from FileFactory
3 archives
PW: LaWally


16 thoughts on “HD-Vinyl 96/24 (EMI) Nikolai Rimsky-Korsakov – Scheherazade (Rostropowitsch)

  1. links are fixed, thanks!
    i’m finishing the d/l, get a portion of my favourite 白毫銀針 (silver needles with white fluff) white tea, the water in my kettle is boiling, and i’m almost ready to hear it.

Leave a Reply