HD-Vinyl 96/24 (Decca) L. van Beethoven – Symphony No. 7 (Abbado)

Reuploaded, now with FF links

# Composer: Ludwig van Beethoven
# Orchestra: Vienna Philarmonic Orchestra
# Conductor: Claudio Abbado
# Vinyl (1966)
# Format: FLAC (tracks)
# Label: Decca
# DR-Analysis: DR 13
# Size: 967 MB
# Scan: yes
# Server: FF

1. Poco sostenuto – Vivace
2. Allegretto
3. Presto – Assai meno presto
4. Allegro con brio

5. Prometheus Ouverture

 Analyzed folder: /Users/alfredo/Desktop/ HiResMusic/96k LvB S7 Abbado
 DR        Peak        RMS        Filename
DR13        -1.85 dB     -20.24 dB     A1 Poco sostenuto – Vivace.wav
DR14        -4.78 dB     -25.08 dB     A2 Allegretto.wav
DR13        -2.19 dB     -21.00 dB     B1 Presto – Presto meno assai .wav
DR13        -1.25 dB     -17.28 dB     B2 Allegro con brio .wav
DR13        -3.33 dB     -21.33 dB     B3 Prometheus Ouverture.wav

 Number of files:    5
 Official DR value:    DR13

Ripping Infos

  • RCM: Okki Nokki
  • TT: Clearaudio Champion Level II
  • System: Special Edition Denon DL 103
  • Phono stage: Pro-Ject Phono Box II
  • Pre Amp: Unison Research Unico Pre (Tube)
  • Finals: Opera Consonance 9.9 Mono (Tube)
  • Speakers: Dali Helikon 400
  • Software: iZotope RX Advanced v2.02, Adobe Audition CS 5.5 -> Wave 32 bit/96 kHz
  • Light de-Clicking with ClickRepair, significant clicks manually removing, no De-Noising

You hear some clicks and pops here and there? Who cares?
I better let some light anomalies instead of destroying the music. Enjoy the music, not the ticks & pops.

  • DR-Analisys before converting to Flac
  • Converting Wave 32bit/96kHz -> Flac 24bit/96kHz: Twisted Wave
  • Artwork: Sony Alpha 350, Epson Perfection V750 Pro, Photoshop CS 5.5

If you like what i do, please consider that a little donation would be very appreciate. I reinvest all donations in maintenance of my rig, for purchasing cleaning solutions and, most important of all, purchasing of new vinyls.
Click on the “Donate”-button. Thank you very much !

Download from FileFactory
3 archives
PW: LaWally

19 thoughts on “HD-Vinyl 96/24 (Decca) L. van Beethoven – Symphony No. 7 (Abbado)

    • Hi Lee…..you dont need a log file. Burn without break between the tracks. Silence at begin and at end of each file is included, exactly in original length like it is on vinyl

    • everything works well i tried it and this comes from RS:

      Loading file
      You want to load the following file

      http://rapidshare.com/files/429492233/96k_beet7_flac.part1.rar300000 KB
      RapidPro UserFull speed with all anti-waiting advantages

      * Unlimited bandwidth
      * Download starts instantly
      * Secured storage
      * Full functionalities & many extra features
      * Access to the Anti-Waiting Lounge
      * Estimated transfer time: 8.20 minutes

      High-Speed Download

      try again – sometime there are some local (your region) or RS problems, but normally these are of little duration.

  1. Thank you Rachmaninoff – thank you also for returning to RapidShare (or FilePost), cannot wait for many currently deleted posts to be available in this format – donation’s coming, and well deserved. J.

Leave a Reply