HD-Vinyl 96/24 (EMI) Ludwig van Beethoven – Violin Concerto (Campoli)

Reposted, now with FF links

# Composer: Ludwig van Beethoven
# Performer: Alfredo Campoli
# Orchestra: Royal Philarmonic Orchestra
# Conductor: John Pritchard
# Vinyl (1962)
# Format: Flac (tracks)
# Label: HMV (EMI)
# DR-Analysis: DR 15
# ASIN: not available on CD
# Size: 805 MB
# Scan: yes
# Server: FF

Ladies and Gentlemen, please, sit down and fasten your sit belts !

Alfredo Campoli’s recordings on vinyl are hard to find and very expensive ! The italian/english wonder violinist was a legend before his death. As a young wonder child he won so many musical competitions in a short time, that somewhen he was beprayed not to come again in the future days in any musical competion.


Analyzed folder: /Volumes/HDMUSIC/ Work on HiResMusic/96kLvB_ViCo_AC/96k LvB Violin Concerto – Alfredo Campoli
DR        Peak        RMS        Filename
DR15        -2.27 dB     -23.45 dB     A LvB – Violin Concerto In D Opus 61 – 1 Allegro Ma Non Troppo.wav
DR16        -6.99 dB     -28.59 dB     B1 LvB – Violin Concerto In D Opus 61 – Larghetto.wav
DR14        -0.96 dB     -21.81 dB     B2 LvB – Violin Concerto In D Opus 61 – Rondo (Allegro).wav
Number of files:    3
Official DR value:    DR15

Ripping Infos

  • RCM: Okki Nokki
  • TT: Clearaudio Champion Level II
  • System: Special Edition Denon DL 103
  • Phono stage: Pro-Ject Phono Box II
  • Pre Amp: Unison Research Unico Pre (Tube)
  • Finals: Opera Consonance 9.9 Mono (Tube)
  • Speakers: Dali Helikon 400
  • Connections: MIT Terminator, Audioquest Emerald, Audioquest Quartz
  • Software: iZotope RX Advanced v2.02, Adobe Audition CS 5.5, Twisted Wave 1.9
  • Light de-Clicking with ClickRepair, significant clicks manually removing, no De-Noising

If You hear some clicks and pops here and there, Who cares?
Id rather have a few light anomalies instead of destroying the music. Enjoy the music, not the ticks & pops.

  • DR-Analisys before converting to Flac
  • Converting Wave -> Flac: Twisted Wave 1.9
  • Artwork: Sony Alpha 350, Epson Perfection V750 Pro, Photoshop CS 5.5

If you like what i do, please consider that a little donation would be very appreciate. I reinvest all donations in maintenance of my rig, for purchasing cleaning solutions and, most important of all, purchasing of new vinyls.
Click on the “Donate”-button. Thank you very much !

Download fro
m FileFactory

3 archives
PW: LaWally

22 thoughts on “HD-Vinyl 96/24 (EMI) Ludwig van Beethoven – Violin Concerto (Campoli)

    • Esistono storielle ed aneddoti vari su Alfredone…la maestra di violino di una vecchia mia fiamma raccontava che un giorno, poco prima di un concorso musicale, un gruppo di partecipanti minacciò Campoli di menarlo per bene se avrebbe “osato” prendervi parte 🙂

      • E’ una vera incredibile sorpresa! e’ classicissimo e caldissimo.
        Comincio a pensare che sono i tuoi trasferimenti a rendere tutto… oro. Davvero sono senza fiato per la qualità.
        Grazie Rachmaninov (in onor suo).
        It’s a real, incredible surprise! a very classic and warm play.
        But I’m beginning to think that it depends on your transfers that everything become… gold. I’m really breathless 😯 for the quality of your posts! Thanks Rachmaninov.

  1. Thank for sharing these great discs. For me, Filefactory is good, As I can’t buy premium accounts, with FF I can download something from this wonderful place.
    Sorry about my bad English

Leave a Reply