HD-Vinyls 24/96 (Decca) R. Wagner – Solti’s “Ring” 4 – Götterdämmerung

Reposted, with FF links

# Composer: Richard Wagner
# Performer: Hans Hotter, Birgit Nilsson, Kirsten Flagstad, Dietrich Fischer-Dieskau, Wolfgang Windgassen, Ira Malaniuk, Claire Watson, Set Svanholm, Waldemar Kmentt, Eberhard Wächter, Paul Kuen, Hetty Plümacher, Oda Balsborg, Kurt Böhme, Gustav Neidlinger, Walter Kreppel, Jean Madeira, George London, Gerhard Stolze, Dame Joan Sutherland, Marga Höffgen, Helen Watts, Maureen Guy, Dame Gwyneth Jones, Lucia Popp, Christa Ludwig, Gottlob Frick, Anita Välkki, Grace Hoffman, Vera Schlosser, Vera Little, Claudia Hellmann, Brigitte Fassbaender, Régine Crespin, Helga Dernesch, James King, Berit Lindholm, Marilyn Tyler
# Orchestra: Vienna Philarmonic Orchestra
# Conductor: Sir Georg Solti
# Vinyl (1965)
# Number of Discs: 6
# Format: Flac
# Label: Decca
# DR-Analysis: DR 13
# ASIN: B0000042H4
# Size: 5.03 GB
# Scan: yes
# Server: FF

 Analyzed folder: /Users/alfredo/Desktop/ HiResMusic/96k Wagner Ring/96k Wagner Ring Solti/4 Goetterdaemmerung Solti
 DR        Peak        RMS        Filename
 DR15        -0.56 dB     -21.01 dB     Goetterdaemmerung Solti – SideA.wav
 DR12        -0.24 dB     -17.50 dB     Goetterdaemmerung Solti – SideB.wav
 DR14        -1.13 dB     -20.87 dB     Goetterdaemmerung Solti – SideC.wav
 DR14        -0.45 dB     -20.71 dB     Goetterdaemmerung Solti – SideD.wav
 DR13        -0.42 dB     -19.46 dB     Goetterdaemmerung Solti – SideE.wav
 DR15        -0.43 dB     -20.68 dB     Goetterdaemmerung Solti – SideF.wav
 DR11        -0.41 dB     -16.70 dB     Goetterdaemmerung Solti – SideG.wav
 DR12        -0.17 dB     -16.45 dB     Goetterdaemmerung Solti – SideH.wav
 DR14        -0.24 dB     -19.02 dB     Goetterdaemmerung Solti – SideI.wav
 DR14        -1.13 dB     -20.41 dB     Goetterdaemmerung Solti – SideJ.wav
 DR14        -0.58 dB     -21.07 dB     Goetterdaemmerung Solti – SideK.wav
 DR12        -0.33 dB     -17.57 dB     Goetterdaemmerung Solti – SideL.wav
 Number of files:    12
 Official DR value:    DR13

Ripping Infos

  • RCM: Okki Nokki
  • TT: Clearaudio Champion Level II
  • System: Special Edition Denon DL 103
  • Phono stage: Pro-Ject Phono Box II
  • Pre Amp: Unison Research Unico Pre (Tube)
  • Finals: Opera Consonance 9.9 Mono (Tube)
  • Speakers: Dali Helikon 400
  • Connections: MIT Terminator, Audioquest Emerald, Audioquest Quartz
  • Software: iZotope RX Advanced v2.02, Adobe Audition CS 5.5, Twisted Wave 1.9
  • Light de-Clicking with ClickRepair, significant clicks manually removing, no De-Noising

If You hear some clicks and pops here and there,  Who cares?
Id rather have a few light anomalies instead of destroying the music. Enjoy the music, not the ticks & pops.

  • DR-Analisys before converting to Flac
  • Converting Wave -> Flac: Twisted Wave 1.9
  • Artwork: Sony Alpha 350, Epson Perfection V750 Pro, Photoshop CS 5.5

If you like what i do, please consider that a little donation would be very appreciate. I reinvest all donations in maintenance of my rig, for purchasing cleaning solutions and, most important of all, purchasing of new vinyls.
Click on the “Donate”-button. Thank you very much !

Download fro
m FileFactory
13 archives

PW: LaWally

23 thoughts on “HD-Vinyls 24/96 (Decca) R. Wagner – Solti’s “Ring” 4 – Götterdämmerung

  1. Sir Rach –

    Thank you for everything.

    I have a question that I hope is not that stupid. So, here goes:

    In the list of files for this recording (http://hotfile.com/list/1865695/995febe), there are two files labeled #7:

    4-gott_slt.part07.rar 25.9Mb


    4-gott_slt.part07.rar 133.5Mb)

    If I save the first #7 file as it is and then relabel the second #7 file as 4-gott_slt.part07A.rar (to which I have added an “A”), will the extraction work correctly, thus giving me perfect set of files to burn?

    In advance, I really appreciate your answer and in regards to your SHARING, no thanks would ever be enough thanks – truly.

    • Oh no problem…the right part is that with the size of 133.5 MB. The other is an aborted upload of that time. I deleted it now. You see that all parts have the same size but the last one.

    • Robbie, col tempo, senz’altro…inZomma, sono incasinatissimo col lavoro (lavoro in proprio) e posso fare poco sino a quasi fine anno….poi sarà tutta in discesa e mi occuperò di molti “scheletri” cha languono dentro a diversi armadi 😉

  2. Rach, ho un problem. Arrivato a Side L mi dice che la password è non è corretta. Continuo a re-enter LaWally ma non va avanti. Any ideas?
    Many thanks!

    • Hi Sepo…
      “The server hosting this file is temporarily unavailable due to system maintenance. Please try again shortly.” is not the same as “doesn’t work”.
      Be patient and try again in few days. Normally it takes few days up to some weeks (seldom)

  3. After several listening of Solti’s Ring in – possibly – all the existing editions, my preference goes to this one. The strings in the Brünnhilde’s awakening scene are simple awesome. (to mention but one example). After many years, I have eventually come to this Ring on my knee. Thank you again. Rachmaninov!

    • Liebe Claudia, ein neues “part08” is geladen worden. Viel Spaß!
      Solltest du part08 jetzt zwei Mal sehen (alter Fehler von FF) nimm das mit dem neuerem Datum.

  4. Ganz herzlichen Dank,
    Du bist ja unglaublich flott!
    Klingst auch gar nicht so russisch …
    Nur die Bilder unten einpfriemeln ist immer ein Krampf, hüpfen ständig wild umher wie die Flöhe. Könnte mir vorstellen, daß Dir etliche Antworten und Danksagungen darum entgehen. Gingbbeben schon wieder 3 Mal daneben. Muß ich jetzt aber durch, bin ich Dir schon schuldig.
    Wünsche fruchtbaren und erbaulichen Sommer!

Leave a Reply