Mono HD-Vinyl 24/96 (CBS) Franz Liszt – Raymond Trouard ‎– Récital De Piano N°2


Many thanks to Trottar (who else?) for this beautiful rarity
(from French Wikipedia, translated with google)

He won his first piano prize in 1933 at the Conservatoire de Paris, and a second prize for conducting in 1937. His teachers were André Bloch, Joseph Morpain, Victor Staub, Emil von Sauer, Marcel Dupré and Paul Dukas. Philippe Gaubert and Bruno Walter. His classmates are Maurice Baquet, Henri Betti, Paul Bonneau, Leo Chauliac, Henri Dutilleux, Louiguy and Pierre Spiers. He perfected his musical studies with Yves Nat, Sergei Rachmaninov, Manuel Infante, Maurice Ravel. He gave his first piano recital in 1935. He won the first Grand Prix Louis Diémer in 1939. Then began for him a great international career that will take him around the world: in France of course, but everywhere in Europe, England, Germany , Austria, Belgium, Italy, Spain, Switzerland, Norway, Sweden, Finland, Denmark, Holland. He also plays in South America and North America (United States, Canada). He plays in recital, and with orchestra under the direction of the greatest conductors: Philippe Gaubert, Pierre Monteux, Eugene Bigot, André Cluytens, Pierre Dervaux, Richard Beck, Carl Schuricht … His repertoire is vast, from Bach to Dutilleux. He excels in Liszt, of which he holds not only the technique but also the spirit by filiation with Emil von Sauer.


Composer: Franz Liszt

Performer: Raymond Trouard

Vinyl 1955
Number of Discs: 1
Format: FLAC
Label: CBS


DR-Analysis: DR 13
Size: 581 MB
Scan: yes
Server: FF

French critics see him as one of the piano masters of the 20th century:
“A legendary technique … wonderful hands … a source of joy”. Bernard Gavoty – Clarendon – The Figaro.
“The piano, the sumptuous piano of Emile Sauer, Rachmaninoff, and Vladimir Horowitz, can be proud of Monsieur Trouard.” (Jean Wiener).
“The most magnificent performance of the concerto in E flat of Liszt, which I remember since Busoni …”. (Jean Chantavoine)
“The appassionata was the most beautiful or the most sublime – I use without hesitation absolute superlative – that I heard since Yves Nat”. (José Bruyr)
International criticism is no less laudatory:
“For a long time Debussy has not been interpreted with such ingenuous force, in an approach as intuitive as this evening given by Trouard”. Der Tagespiegel – Berlin.
“The central event of the concert was Ravel’s concerto with Raymond Trouard. The public and the orchestra (symphonic Vienna) underwent the fascination of the pianist who was celebrated with enthusiasm. Neues Osterreich – Vienna.
“Raymond Trouard’s play made Richard Strauss’s Burlesque an undeniable success for himself and for the work.” Volkstimme – Vienna.
“He is a spiritual artist, full of poetry, taking, and from the technical point of view … legendary”. Svenska Dagbladet – Stockholm.
“Raymond Trouard has the intrepid ardor, the steel technique, the clear and brilliant sonority, the frankness and rhythmic safety of the great virtuoso”. Evening – Brussels.
Raymond Trouard was among the great performers of Frédéric Chopin. On the record, he gave a reference version of the 14 waltzes. He made numerous recordings for Odeon, then CBS and EMI. These recordings have been remastered, and are reissued (May 2008) in a box of 11 CDs by the firm Sony, box entitled “Raymond Trouard: A life for the piano”. A booklet is included, with a recent interview of the artist by Frédéric Gaussin (2007). Many other registrations are waiting for a future commercial edition.
Raymond Trouard has had many students such as Michel Dalberto, Jean-Gabriel Ferlan, Eric Ferrer or Marc-Henri Lamande, at the Conservatoire National Supérieur de Paris where he was a professor from 1969 to 1985.

———————————————————————————————-
Analyzed Folder: /96k (Mono) Liszt – Piano Recital No. 2 – Trouard_dr.txt
———————————————————————————————-
DR Peak RMS Filename
———————————————————————————————-
DR14 -0.53 dB -19.05 dB A Sonate En Si Mineur.flac
DR12 -0.31 dB -17.20 dB B1 Funerailles.flac
DR15 -0.57 dB -21.40 dB B2 Legende No.1 – Saint-Francois D’Assise Prechant Aux Oiseaux.flac
DR13 -0.43 dB -16.78 dB B3 Legende No.2 – Saint-Francois De Paule Marchant Sur Les Flots.flac
———————————————————————————————-
Number of Files: 4
Official DR Value: DR13

==============================================================================================

 

Ripping Info

Monitoring

A few words about the way i’ve been cleaning vinyl records and post-processing rips, since summer 2017: After washing and recording the vinyl, I use a kind of mixed cleaning of the rip, which consists of mostly manual rather than automatic de-clicking, (the latter only on unimportant passages, such as end of the groove, beginning and end of the songs, applause, speaking). I often leave the rips almost rough, de-clicking only the silences between the tracks. Never de-noising or/and EQ, as unfortunately some do. I prefer to hear a bit of quiet noises of the clean groove, that contain something of the music, rather than generate clinically clean files that may, eventually, sound a bit dead. If you do not agree, do not download my rips and buy instead digital files or CDs.
When I listen to music I “don’t hear” any noise: I enjoy the music 😀
I do not make rips for headphones!

  • Software: iZotope RX 5 Advanced, Adobe Audition CS 5.5, Twisted Wave 1.18
  • Very careful de-clicking with iZotope, significant clicks manually removed, never de-noising
  • DR-Analisys
  • Wave 32/192(32/384) —> Flac 24/96 & 24/192: Twisted Wave 1.18
  • Artwork: Sony Alpha 350, Epson Perfection V750 Pro, Photoshop CS 5.5

 

One thought on “Mono HD-Vinyl 24/96 (CBS) Franz Liszt – Raymond Trouard ‎– Récital De Piano N°2”

Leave a Reply