Mono HD-Vinyl 24/96 (Columbia) Franz Liszt – Piano Concerto No. 1/Hungarian Fantasy (Geza Anda)


Many thanks to our friend Trottar for this rarity

Lucky man, who can say to have as many as possible recordings by Geza Anda.


Composer: Franz Liszt

Performer: Geza Anda

Orchestra: Philharmonia Orchestra

Conductor: Otto Ackermann

Vinyl 1958

Number of Discs: 1

Format: FLAC

Label: Columbia

DR-Analysis: DR 11

Size: 395 MB

Scan: yes

Server: FF

———————————————————————————————-

Analyzed Folder: /96k (Mono) Liszt – Piano Concerto No. 1 – Anda_dr.txt

———————————————————————————————-

DR Peak RMS Filename 

———————————————————————————————-
DR10 -1.39 dB -16.75 dB A1 Concerto No. 1 In E Flat Major – Allegro Maestoso.flac

DR12 -0.62 dB -18.58 dB A2 Concerto No. 1 In E Flat Major – Quasi Adagio, Alleggretto Vivace – Allegro Animato.flac

DR11 -0.38 dB -15.33 dB A3 Concerto No. 1 In E Flat Major – Allegro Marziale Animato.flac

DR12 -0.87 dB -18.43 dB B Hungarian Fantasy.flac

———————————————————————————————-
Number of Files: 4

Official DR Value: DR11
==============================================================================================

 

Ripping Info

Monitoring

A few words about the way i’ve been cleaning vinyl records and post-processing rips, since summer 2017: After washing and recording the vinyl, I use a kind of mixed cleaning of the rip, which consists of mostly manual rather than automatic de-clicking, (the latter only on unimportant passages, such as end of the groove, beginning and end of the songs, applause, speaking). I often leave the rips almost rough, de-clicking only the silences between the tracks. Never de-noising or/and EQ, as unfortunately some do. I prefer to hear a bit of quiet noises of the clean groove, that contain something of the music, rather than generate clinically clean files that may, eventually, sound a bit dead. If you do not agree, do not download my rips and buy instead digital files or CDs.
When I listen to music I “don’t hear” any noise: I enjoy the music 😀
I do not make rips for headphones!

  • Software: iZotope RX 5 Advanced, Adobe Audition CS 5.5, Twisted Wave 1.18
  • Very careful de-clicking with iZotope, significant clicks manually removed, never de-noising
  • DR-Analisys
  • Wave 32/192(32/384) —> Flac 24/96 & 24/192: Twisted Wave 1.18
  • Artwork: Sony Alpha 350, Epson Perfection V750 Pro, Photoshop CS 5.5

6 thoughts on “Mono HD-Vinyl 24/96 (Columbia) Franz Liszt – Piano Concerto No. 1/Hungarian Fantasy (Geza Anda)

  1. Скачал ещё осенью и не раз с огромным удовольствием слушал. Большое спасибо!

Leave a Reply