Particular & Rare HD-Vinyl 96/24 (ABC Westminster) T. L. de Victoria – 4 Motets/Missi Quarti Toni

Thank you Armando for this ultra rare pearl !
Reposted with FF links

# Composer: Tomas Luis de Victoria
# Performer: Schola du Grand Scholasticat des Peres Saint-Esprit du Chevilly, Cond. by R.P.L. Deiss, Chorale Saint-Jordi de Barcelona, Cond. by O. Martorell
# Vinyl (1974)
# Number of Discs: 1
# Format: Flac
# Label: ABC Westminster
# DR-Analysis: DR: 11
# Size: 778 MB
# Scan: yes
# Server: FileFactory

Analyzed folder: /96k Tomas Luis de Victoria – 4 Motets-Missi quarti toni
DR        Peak        RMS        Filename

DR11        -1.03 dB     -16.84 dB     A1 Motet Ave Maria.wav
DR12        -2.61 dB     -19.15 dB     A2 Motet O Vos Omnes.wav
DR12        -1.30 dB     -17.20 dB     A3 Motet O Regem Caeli.wav
DR10        -2.95 dB     -17.44 dB     A4 Motet Duo Seraphim.wav
DR11        -4.69 dB     -19.89 dB     B1 Missa Quarti Toni – Kyrie.wav
DR11        -2.46 dB     -16.51 dB     B2 Missa Quarti Toni – Gloria.wav
DR11        -2.51 dB     -18.28 dB     B3 Missa Quarti Toni – Credo.wav
DR11        -1.28 dB     -16.87 dB     B4 Missa Quarti Toni – Sanctus.wav
DR10        -0.99 dB     -16.83 dB     B5 Missa Quarti Toni – Benedictus.wav
DR11        -1.28 dB     -16.42 dB     B6 Missa Quarti Toni – Agnus Dei.wav
Number of files:    10
Official DR value:    DR11


Ripping Info

  • RCM: Okki Nokki
  • TT: Clearaudio Champion Level II + Special Edition Denon DL 103 -> Pro-Ject Phono Box II
  • Pre Amp: Unison Research Unico Pre (Tube)
  • Finals: Opera Consonance 9.9 Mono (Tube)
  • Speakers: Dali Helikon 400
  • Software: iZotope RX Advanced v2.02, Adobe Audition CS 5.5 -> Wave 32 bit/96 kHz
  • Light de-Clicking with ClickRepair, significant clicks manually removing, no De-Noising

You hear some clicks and pops here and there?
Who cares?
I better let some light anomalies instead of destroying the music.
Enjoy the music, not the ticks & pops.

  • Converting Wave 32bit/96kHz -> Flac 24bit/96kHz: Twisted Wave
  • Artwork: Sony Alpha 350, Epson Perfection V750 Pro, Photoshop CS 5.5

If you like what i do, please consider that a little donation would be very appreciate.
I reinvest all donations in maintenance of my rig, for purchasing cleaning solutions and, most important of all, purchasing of new vinyls.
Click on the “Donate”-button.
Thank you very much !

Download from FileFactory
2 archives

PW: LaWally

9 thoughts on “Particular & Rare HD-Vinyl 96/24 (ABC Westminster) T. L. de Victoria – 4 Motets/Missi Quarti Toni

  1. Looks like I´m late to the party, been looking at other posts and it seems Hotfile has done a complete wipe out of all the files…sorry if this was obvious as I´m new to the blog.
    Thank you once again.

  2. about a year ago i was happy like an infant taking an elephant as a gift. a that time one amateur has ripped the same LP inn 16/44 from heavily worn source.
    i loved Victoria since the very first notes of his Officium defunctorum heard about 40 year ago. and now this masterpiece comes to us in hi-rez rip taken from a worthy source.
    well, another great work well done.

    thanks a lot!

Leave a Reply