Sensational Vinyl Mono 16/44.1 (Decca) Giuseppe Verdi – Aida (Tebaldi/Del Monaco)

New Rip, reposted, now with FF links
This recording of Aida is perhaps not the best available, but captures Tebaldi and Del Monaco at their prime. They sound glorious here. And lets not forget the great Ebe Stignani.

# Composer: Giuseppe Verdi
# Singer: Renata Tebaldi, Mario Del Monaco, Ebe Stignani, Aldo Protti
# Orchestra: Chorus & Orchestra of the Accademia Santa Cecilia, Rome
# Conductor: Alberto Erede
# Vinyl (1952)
# Number of Discs: 3
# Format: Flac
# Label: London (Decca)
# DR-Analysis: DR 14
# ASIN: B00000421U
# Size: 345 MB
# Scan: yes
# Server: FileFactory

The first time I heard this Aida – it was on radio, many many years ago – Iwas the greatest fan of Del Monaco since I was 10…..and during listening to the radio I tried to recognize that voice and I thought: „hmmm, it sound a little like a very young Del Monaco, but he is a dramatic and verismo tenor, not a belcantist – it cannot be Mario“.

Epic error !
At the time, I didn’t know, that Mario started his carrer in the late 40ies with verismo and belcanto too.

At the end of the broadcasting I heard those magic names „Renata Tebaldi…Mario Del Monaco“ – OMG, I was in paradise.

I started the search for this Box-Set, but it was out of print, impossible to get it. Later I refused to get it on CD….I wanted those damn vinyls.
At that time there was no internet, no ebay, etc….there was nothing but records-shops…
However, through all the time, I „forgot“ this Aida, until 2001 (I was records pro seller on ebay) and I remembered again of this Aida performance. I looked for it on all ebay nations for many years and finally, few years later, I had it, together with other 40-45 opera sets – all together for only about 50 $.

By the way….this is the 1st recording that Del Monaco made for Decca in 1952.

The records are very old and they were played very often, so forgive me, if you hear from time to time some light noises…Idid my very best to restore the sound.

 Analyzed folder: /44k_mono(PJ-RS)Verdi-Aida-Tebaldi-Del Monaco
 DR        Peak        RMS        Filename
 DR14        -0.78 dB     -21.67 dB     sideB.wav
 DR14        -0.89 dB     -20.54 dB     sideA.wav
 DR14        -0.79 dB     -19.77 dB     sideC.wav
 DR12        -1.07 dB     -19.81 dB     sideD.wav
 DR15        -0.92 dB     -21.55 dB     sideE.wav
 DR14        -1.01 dB     -20.56 dB     sideF.wav
 Number of files:    6
 Official DR value:    DR14


Ripping Infos

  • RCM: Okki Nokki
  • TT: Clearaudio Champion Level II
  • System: Limited Edition Denon DL 103 SA
  • NEW ! Phono stage: Pro-Ject Phono Box RS
  • ADC/DAC: RME Fireface UC
  • Pre Amp: Unison Research Unico Pre (Tube)
  • Finals: Opera Consonance 9.9 Mono (Tube)
  • Speakers: Dali Helikon 400
  • Connections: MIT Terminator, Audioquest Emerald, Audioquest Quartz
  • Software: iZotope RX Advanced v2.02, Adobe Audition CS 5.5, Twisted Wave 1.9
  • Light de-Clicking with iZotope, significant clicks manually removing, no De-Noising

If You hear some clicks and pops here and there, Who cares?
Id rather have a few light anomalies instead of destroying the music. Enjoy the music, not the ticks & pops.

  • DR-Analisys before converting to Flac
  • Converting Wave -> Flac: Twisted Wave 1.9
  • Artwork: Sony Alpha 350, Epson Perfection V750 Pro, Photoshop CS 5.5

If you like what i do, please consider that a little donation would be very appreciate. I reinvest all donations in maintenance of my rig, for purchasing cleaning solutions and, most important of all, purchasing of new vinyls.
Click on the “Donate”-button. Thank you very much !

Download fro
m FileFactory
PW: LaWally

14 thoughts on “Sensational Vinyl Mono 16/44.1 (Decca) Giuseppe Verdi – Aida (Tebaldi/Del Monaco)

  1. My dear friend Rach, hello how are you? I am wonder me if you have this file in other download server this one is down.

    Have wonderful time! greeting from Mexico.

    • Hola Arthuro…if everything fine with you?

      You know, more and more i get nocices of “dead” links….they are all from RS and i have a long list now, and will repost on HF and FSo one after the other. Is only a matter of time 🙂

      • Everything gone fine my friend, Mexico is a country complicate last years, we hope this year can be diferent the election for a new president is closer .. we will see, for now we try to survive and work hard 😉

        Thank you for your kindlyness, I will wait with patience for get the Aida with Del Monaco 🙂 greetings !

  2. I thought I had this Aida from you, but it was not there.
    This was one of the first complete Opera recordings I had in the early 1950’s. How I enjoyed that pristine MDM. what a voice!
    Thanks for re-mounting this album .

    In your debt,

  3. Thank you for the important work your doing; Opera recordings are the most important & wonderful recordings ever made, I think.

Leave a Reply