Rare HD-Vinyl 24/96 (BASF) Ludwig van Beethoven – Piano Concerto No. 3 (Frager/Bertini)

Malcolm Frager is one of the finest pianists out there, his few recordings are very hard to find on vinyl
For our friend TROTTAR

# Composer: Ludwig van Beethoven
# Performer: Malcolm Frager
# Orchestra: Hamburg Philharmonic State Orchestra
# Conductor:
Gary Bertini
# Vinyl (1975)
# Number of Discs: 1
# Format: FLAC (Tracks)
# Label: BASF
# DR-Analysis: DR 14
not found
# Size: 694 MB
# Scan: yes
# Server: FileFactory

 Analyzed folder: /96kLvB_PC3_Fra/96k LvB – Piano Concerto 3 – Frager
 DR        Peak        RMS        Filename
 DR15        -0.46 dB     -20.70 dB     A LvB – Piano Concerto No. 3 – I – Allegro Con Brio.wav
 DR13        -4.73 dB     -24.94 dB     B1 LvB – Piano Concerto No. 3 – II – Largo.wav
 DR14        -0.60 dB     -20.23 dB     B2 LvB – Piano Concerto No. 3 – III – Rondo, Allegro.wav
 Number of files:    3
 Official DR value:    DR14


Ripping Infos

  • RCM: Okki Nokki
  • TT: Clearaudio Champion Level II
  • Cartridge: Sumiko Black Bird
  • Phono amp: Pro-Ject Phono Box RS
  • ADC/DAC: RME Fireface UC
  • Pre Amp: Unison Research Unico Pre (Tube)
  • Finals: Opera Consonance 9.9 Mono (Tube)
  • Speakers: Dali Helikon 400
  • Connections: MIT Terminator, Audioquest Emerald, Audioquest Quartz
  • Software: iZotope RX Advanced v2.02, Adobe Audition CS 5.5, Twisted Wave 1.9
  • Light de-Clicking with ClickRepair, significant clicks manually removing, no De-Noising

If You hear some clicks and pops here and there, Who cares?
Id rather have a few light anomalies instead of destroying the music. Enjoy the music, not the ticks & pops.

  • DR-Analisys before converting to Flac
  • Converting Wave -> Flac: Twisted Wave 1.9
  • Artwork: Sony Alpha 350, Epson Perfection V750 Pro, Photoshop CS 5.5

If you like what i do, please consider that a little donation would be very appreciate. I reinvest all donations in maintenance of my rig, for purchasing cleaning solutions and, most important of all, purchasing of new vinyls.
Click on the “Donate”-button. Thank you very much !

Download from FileFactory

2 archives
PW: LaWally

9 thoughts on “Rare HD-Vinyl 24/96 (BASF) Ludwig van Beethoven – Piano Concerto No. 3 (Frager/Bertini)

  1. Alf, what a big surprise. I did not know about the existence of this recording. Also a rarity to find recordings made by the BASF label. Thank you very much. Trottar

  2. Thank yoy for concerto 3 & 5. Beethoven is my favourite! I’m always eager to listen to new interpretations. By the way Mr. Rachmaninov, did you listen to the Beethoven: Piano Sonatas, Opp. 109, 110, 111 by Mitsuko Uchida on CD? Absolutely splendid (I will share with pleasure). Cheers

Leave a Reply