Rare HD-Vinyl 24/96 (HRE) Flomental Halévy – La Juive – Live 1981

front-small-boxsetMany thanks to our friend Bob for this rarity
Halévy’s La Juive was once widely popular (it was Caruso’s last appearance in public, for example), but has more or less sunk like a stone in more recent years – yet there are, in fact, a couple recordings in the catalogue (I haven’t heard any of the alternatives, so I cannot really compare). The one under consideration sports a starry cast and does, in the end, make a good case for this at least intermittently engaging and interesting grand opera – engaging in the parts featuring the traditional French grand opera spectacular splendor, but in the end more notable for its lyrical parts and in particular the pacing and thematic and structural cohesion; even the grand scenes work more as parts of the greater structure than ends in themselves. It is also imaginatively scored, more so, perhaps, than the operas of his more feted contemporary Meyerbeer, and Halévy’s ability to create atmospheric and subtly distinctive scenes is admirable. On the other hand, Meyerbeer was clearly superior with regards to writing really memorable melodies – Halévy’s are pleasant enough but usually forgotten as soon as they have been presented.

Composer: Flomental Halévy
Performer: José Carreras, Cesare Siepi, Ilona Tokody
Orchestra: Vienna Symphony Orchestra
Conductor: Gerd Albrecht
Vinyl (1981)
Number of Discs: 3
Format: Flac
Label: HRE
DR-Analysis: DR 11
Size: 3.27 GB
Scan: yes
Server: FileFactory

Analyzed folder: /96k Halevy – La Juive – Carreras, Siepi
DR        Peak        RMS        Filename
DR11        -1.08 dB     -16.34 dB     sideA.aif
DR10        -0.59 dB     -15.00 dB     sideB.aif
DR12        -0.45 dB     -16.78 dB     sideC.aif
DR12        -0.64 dB     -17.26 dB     sideD.aif
DR12        -0.94 dB     -17.54 dB     sideE.aif
DR11        -0.82 dB     -16.46 dB     sideF.aif
Number of files:    6
Official DR value:    DR11


Ripping Info


If You hear some clicks and pops here and there, Who cares?
Id rather have a few light anomalies instead of destroying the music.
Enjoy the music, not the ticks & pops.
My rips are almost rough rips.

  • Software: iZotope RX 4 Advanced, Adobe Audition CS 5.5, Twisted Wave 1.9
  • Super light de-clicking with iZotope, significant clicks manually removing, no de-noising
  • DR-Analisys before converting to Flac
  • Converting Wave -> Flac: Twisted Wave 1.9
  • Artwork: Sony Alpha 350, Epson Perfection V750 Pro, Photoshop CS 5.5

If you like what i do, please consider that a little donation would be very appreciate.
I reinvest all donations in maintenance of my rig, for purchasing cleaning solutions and, most important of all, purchasing of new vinyls.
Click on the “Donate”-button.

Thank you very much !

Download from FileFactory
7 archives
PW: LaWally


10 thoughts on “Rare HD-Vinyl 24/96 (HRE) Flomental Halévy – La Juive – Live 1981

Leave a Reply