Rare HD-Vinyl (Mono) 24/96 (Decca/Ace Of Clubs) Franz Liszt – Recital (Katin)

front-small-boxsetMany thanks to our friend Trottar for this rarity
Even Peter Katin cannot quite rescue the first two Liebestraume from the trunk in the attic, but his playing of number three is lovely, transforming its slightly saccharine quality to lyricism. The Rigoletto Paraphrase is gay and delightful. The supreme warhorse, the Hungarian Rhapsody #2, is played so differently and so magnificently that it almost defies description. The textures in the “Lassu” portion are very lean and rapid. There is no grand, rhetorical lingering over each phrase. The ‘Friss” has an astounding drive that banishes all thoughts of the circus. It must be heard. The Rhapsody #15, the Racoczy March from Berlioz “Damnation of Faust”, is again very tight but exciting.

# Composer: Franz Liszt
# Performer: Peter Katin
Vinyl (1954)
Number of Discs: 1
Format: Flac
Label: Decca/Ace Of Clubs
DR-Analysis: DR 14
Size: 396 MB
Scan: yes
Server: FileFactory

Franz Liszt is a problematic composer. Probably the greatest musician of the 19th century for his own transcendental technique, his influence on other composers, his voluminous and selfless transcriptions of other composers’ music, and his advocacy of Wagner, Berlioz, Grieg and countless others, his own ouevre is exceedingly large and varies wildly in quality. But even in the least of his works Liszt imparts a romantic afflatus that combines sentiment, virtuosity and an often pale but distinct lyricism. Because Lizst possesses such virtuosity, many performers (even Horowitz and Richter) stress the pianism to the detriment of the music, which can sound superficial and fustian. The musical virtuosity must be mastered, then subordinated to convey the larger musical idea.

Peter Katin, an English pianist, known to me in a limited fashion for his performances of Mendelssohn and Rachmaninoff, understands the way Liszt should be played and has the virtuosity to do it. He has not had a brilliant international career, but over and over again in the three volumes below, I was impressed by his tremendous musicianship and also by his virtuosity when needed. Most of all, he seems to be able to subordinate his virtuosity to capture and convey the elusive Liszt romantic ethos.


Analyzed folder: /96k(Mono) Liszt – Recital – Katin
DR        Peak        RMS        Filename
DR16        -1.63 dB     -24.22 dB     A1  Liebestraume Nos. 1, 2 And 3.aif
DR14        -2.99 dB     -23.26 dB     A2  Rigoletto, Paraphrase De Concert.aif
DR13        -0.89 dB     -20.24 dB     B1  Hungarian Rhapsody No. 2 In C Sharp Minor.aif
DR12        -2.62 dB     -20.38 dB     B2  Hungarian Rhapsody No. 6 In D Flat Major.aif
DR12        -5.00 dB     -20.18 dB     B3  Hungarian Rhapsody No. 15 In A Minor (Rakoczy March).aif
Number of files:    5
Official DR value:    DR14


Ripping Info


If You hear some clicks and pops here and there, Who cares?
Id rather have a few light anomalies instead of destroying the music.
Enjoy the music, not the ticks & pops.
My rips are almost rough rips.

  • Software: iZotope RX 4 Advanced, Adobe Audition CS 5.5, Twisted Wave 1.9
  • Super light de-clicking with iZotope, significant clicks manually removing, no de-noising
  • DR-Analisys before converting to Flac
  • Converting Wave -> Flac: Twisted Wave 1.9
  • Artwork: Sony Alpha 350, Epson Perfection V750 Pro, Photoshop CS 5.5

If you like what i do, please consider that a little donation would be very appreciate.
I reinvest all donations in maintenance of my rig, for purchasing cleaning solutions and, most important of all, purchasing of new vinyls.
Click on the “Donate”-button.

Thank you very much !

Download from FileFactory

PW: LaWally


12 thoughts on “Rare HD-Vinyl (Mono) 24/96 (Decca/Ace Of Clubs) Franz Liszt – Recital (Katin)

  1. Rach,

    Thanks to you and to Trotter for sharing this rare, monophonic recording of a Liszt Recital, performed by Pater Katin, with your loyal listeners.

    In Track A1, that is supposed to have the three Liebestraume (Nocturnes), only Numbers 1 & 2 are complete. This track ends abruptly after the first note of Number 3 in A flat. Since Liebestraume Nocturne Number 3 is the most well-known piece from the three Liszt Nocturnes, is it possible that you could re-upload Track A1 with the complete Nocturne Number 3, rather than just the first note of Number 3? I listened to Track A1 with the solo piano score and also have studied these three Liszt compositions, which are in my piano repertoire. Since Number 3 makes a very nice encore piece in a recital program, Katin’s interpretation of Number 3, to which you make references in the introduction to this Liszt recital program, I would be very keenly interested in listening to, inasmuch as Katin’s Liszt performances on this recording reflect his very individualized performances of the Liszt compositions in his recital program — that is to say, Katin’s Liszt interpretations emphasize the musical aspects of these Liszt pieces, rather than the usual piano pyrotechnics that often eclipse musical elements of Liszt’s piano compositions in a fog of technical prowess, while missing the sometimes very subtle romantic elements in Liszt’s piano compositions.

    • Oh yeah, I see it. Strange, very strange….semms like all markers i set for split in single parts, were moved at other positions….sorry for inconvenience. I made a new rar that’s on its way.

  2. Dear Alf, the ownly reason I have this Liszt LP in my collection is Peter Katin. His Liszt playing is now good history. I nearly have
    all Katin recordings now. Greetings Trottar

Leave a Reply