Rare HD-Vinyls 24/96 (Philips) Franz Schubert – Impromptus D946, D899 (Brigitte Engerer)

front-small-boxset Many thanks to our friend Trottar for this beauty
It took only some hours of testing with some friends here and online to test my new super pre-amp with integrated tube phono section, to come to the verdict that there is no basis for a fairly comparison. The SP15 is way-way better…so I come to you with my first rip this quickly.
Are you ashamed, because you never heard or read the name of this piano “virtuoso”? You are in good company. I doubt, the majority of classical lovers (me included) has ever heard of Brigitte Engerer. And this is a real pity…and a sin.


Composer: Franz Schubert
Performer: Brigitte Engerer
Vinyl (1983)
Number of Discs: 1
Format: Flac
Label: Philips
DR-Analysis: DR 13
Size: 1.11 GB
Scan: yes
Server: FileFactory


The French pianist Brigitte Engerer (1952-2012) left a legacy that includes many wonderful solo albums, but if pressed to choose just one I would probably pick this late recital. Engerer invariably finds the ideal balance between delicacy and power. She was an outstanding artist from early on, but in the last stretch of her life it was as if anything standing between the music and the listener had melted away. Other outstanding recordings from this period includes the complete Chopin Nocturnes and Liszt Harmonies poetiques et religieuses, and there are some superb videos of live performances as well (check out YouTube). Let’s take pleasure in the direct, heartfelt beauty and unaffected elegance of her playing, and feel grateful for the legacy of a cherishable artist, Highly recommended.  


A1 Hungarian Melody In B Minor 3:14
A2 Klavierstücke (impromptus) D. 946 In E Flat-Minor
A3 Klavierstücke (impromptus) D. 946 In E Flat-Major 10:29
A4 Klavierstücke (impromptus) D. 946 In C-Major 4:53
B1 Impromtus Op. 90 D. 899 In C-Minor 10:32
B2 Impromtus Op. 90 D. 899 In E Flat-Major 4:12
B3 Impromtus Op. 90 D. 899 In G Flat-Major 6:23
B4 Impromtus Op. 90 D. 899 In A Flat-Major 6:48


Analyzed folder: /96k Schubert – Impromptus D899, D946 – Brigitte Engerer
DR        Peak        RMS        Filename
DR12        -8.13 dB     -24.27 dB     A1 Hungarian Melody In B Minor.aif
DR15        -0.85 dB     -20.52 dB     A2 Klavierstuecke (impromptus) D. 946 In E Flat-Minor.aif
DR16        -1.62 dB     -22.05 dB     A3 Klavierstuecke (impromptus) D. 946 In E Flat-Major.aif
DR13        -0.36 dB     -18.84 dB     A4 Klavierstuecke (impromptus) D. 946 In C-Major.aif
DR15        -0.27 dB     -20.74 dB     B1 Impromtus Op. 90 D. 899 In C-Minor.aif
DR13        -1.50 dB     -18.67 dB     B2 Impromtus Op. 90 D. 899 In E Flat-Major.aif
DR12        -8.58 dB     -25.31 dB     B3 Impromtus Op. 90 D. 899 In G Flat-Major.aif
DR11        -4.71 dB     -21.26 dB     B4 Impromtus Op. 90 D. 899 In A Flat-Major.aif
Number of files:    8
Official DR value:    DR13


Ripping Info


If You hear some clicks and pops here and there, Who cares?
Id rather have a few light anomalies instead of destroying the music.
Enjoy the music, not the ticks & pops.
My rips are almost rough rips.

  • Software: iZotope RX 4 Advanced, Adobe Audition CS 5.5, Twisted Wave 1.9
  • Super light de-clicking with iZotope, significant clicks manually removing, no de-noising
  • DR-Analisys before converting to Flac
  • Converting Wave -> Flac: Twisted Wave 1.9
  • Artwork: Sony Alpha 350, Epson Perfection V750 Pro, Photoshop CS 5.5

If you like what i do, please consider that a little donation would be very appreciate.
I reinvest all donations in maintenance of my rig, for purchasing cleaning solutions and, most important of all, purchasing of new vinyls.
Click on the “Donate”-button.

Thank you very much !

Download from FileFactory
3 archives
PW: LaWally

9 thoughts on “Rare HD-Vinyls 24/96 (Philips) Franz Schubert – Impromptus D946, D899 (Brigitte Engerer)

  1. Thanks a lot. Of course we’ve heard of this french pianist. She studied at the Moscow Conservatoire and won Tchaikovsky competition once…

  2. Alf, thank you so much that you selected Brigitte Engerer as first
    rip with the new Pre-Amp.-Brigitte Engerer was since years one of my favourite Artists. Her death in 2012 was a shock for the french music society. My last contact with Brigitte Engerer was after a famous concert in the salle Gaveau in 2011 when she
    gave the 64:00 long Harmonies Poétiques et Religieuses en suite.
    I also remember her Duo concert with Boris Berezowsky in 2009
    at the Grange Touviere.-She was one of the greatest personalities
    of the French vie culturelle. Trottar

Leave a Reply