Sir Adrian Boult – From Bach to Wagner (11 CD box set, APE)

Sir Adrian Boult - From Bach to Wagner (11 CD box set, APE)
Sir Adrian Boult – From Bach to Wagner (11 CD box set, APE)

Audio CD
SPARS Code: ADD
Number of Discs: 11 CD box set
Format: APE (image+cue)
Label: EMI
ASIN: B0084HGZKA
Size: 3.51 GB
Recovery: +3%
Scan: yes
Server: florenfile

CD 01
Bach – Brandenburg Concerto no. 1
Bach – Brandenburg Concerto no. 2
Bach – Brandenburg Concerto no. 3
Bach – Brandenburg Concerto no. 4

CD 02
Bach – Brandenburg Concerto no. 5
Bach – Brandenburg Concerto no. 6
Mozart – Symphony no. 41 in C, K551 “Jupiter”

CD 03
Mozart – Symphony no. 35 in D, K385 “Haffner”
Beethoven – Symphony no. 6 in F, op. 68 “Pastoral”

CD 04
Shubert – Symphony no. 9 ‘Great C major’ D 944
Beethoven – Die Ruinen von Athen, op. 113
Strauss -Radetzky-Marsch
Suppe – Dicher und Bauer

CD 05
Wagner – Eine Faust – Ouvertüre
Wagner – Rienzi
Wagner – Der Fliegende Holländer
Wagner – Tannhäuser
Wagner – Lohengrin

CD 06
Wagner – Lohengrin
Wagner – Tristan und Isolde
Wagner – Die Meistersinger von Nürnberg
Wagner – Das Rheingold
Wagner – Die Walküre
Wagner – Siegfried
Wagner – Götterdämmerung

CD 07
Wagner – Parsifal

CD 08
Brahms – Symphony no. 1 in C minor op. 68
Brahms – Variations on a Theme by Haydn, op. 56a ‘St Antoni Chorale’

CD 09
Brahms – Symphony no. 2 in D op. 73

CD 10
Brahms – Symphony no. 3 in F op. 90
Brahms – Symphony no. 4 in E minor op. 98

CD 11
Brahms – Serenade no. 1 in D Major, Op.11
Brahms – Serenade no. 2 in A, Op.16

florenfile »

9 thoughts on “Sir Adrian Boult – From Bach to Wagner (11 CD box set, APE)”

  1. Found the track titles on allmusic.com and made a cue sheet for CD 11:

    REM DISCID B911C00C
    REM COMMENT “ExactAudioCopy v1.0b3”
    SONGWRITER “Brahms”
    PERFORMER “LPO; Adrian Boult”
    TITLE “Sir Adrian Boult: From Bach to Wagner, CD 11: Brahms: Serenades; Alto Rhapsody”
    FILE “Unknown Artist – Unknown Title.ape” WAVE
    TRACK 01 AUDIO
    TITLE “Serenade No. 1 in D major, Op. 11: Allegro molto”
    SONGWRITER “Brahms”
    FLAGS DCP
    INDEX 01 00:00:00
    TRACK 02 AUDIO
    TITLE “Scherzo (Allegro non troppo) & Trio (Poco più moto)”
    SONGWRITER “Brahms”
    PERFORMER “LPO; Adrian Boult”
    FLAGS DCP
    INDEX 01 12:02:57
    TRACK 03 AUDIO
    TITLE “Adagio non troppo”
    SONGWRITER “Brahms”
    PERFORMER “LPO; Adrian Boult”
    FLAGS DCP
    INDEX 01 18:07:24
    TRACK 04 AUDIO
    TITLE “Menuetto 1 & 2”
    SONGWRITER “Brahms”
    PERFORMER “LPO; Adrian Boult”
    FLAGS DCP
    INDEX 01 26:42:09
    TRACK 05 AUDIO
    TITLE “Scherzo (Allegro)”
    SONGWRITER “Brahms”
    PERFORMER “LPO; Adrian Boult”
    FLAGS DCP
    INDEX 01 30:38:69
    TRACK 06 AUDIO
    TITLE “Rondo (Allegro)”
    SONGWRITER “Brahms”
    PERFORMER “LPO; Adrian Boult”
    FLAGS DCP
    INDEX 01 33:13:67
    TRACK 07 AUDIO
    TITLE “Serenade No. 2 in A, Op. 16: Allegro moderato”
    SONGWRITER “Brahms”
    PERFORMER “LPO; Adrian Boult”
    FLAGS DCP
    INDEX 00 38:10:04
    INDEX 01 38:14:64
    TRACK 08 AUDIO
    TITLE “Scherzo (Vivace)”
    SONGWRITER “Brahms”
    PERFORMER “LPO; Adrian Boult”
    FLAGS DCP
    INDEX 01 47:13:73
    TRACK 09 AUDIO
    TITLE “Adagio non troppo”
    SONGWRITER “Brahms”
    PERFORMER “LPO; Adrian Boult”
    FLAGS DCP
    INDEX 01 49:38:10
    TRACK 10 AUDIO
    TITLE “Quasi menuetto”
    SONGWRITER “Brahms”
    PERFORMER “LPO; Adrian Boult”
    FLAGS DCP
    INDEX 01 54:21:15
    TRACK 11 AUDIO
    TITLE “Rondo (Allegro)”
    SONGWRITER “Brahms”
    PERFORMER “LPO; Adrian Boult”
    FLAGS DCP
    INDEX 01 58:30:40
    TRACK 12 AUDIO
    TITLE “Alto Rhapsody, Op. 53”
    SONGWRITER “Brahms”
    PERFORMER “Janet Baker; LPO; Adrian Boult”
    FLAGS DCP
    INDEX 00 63:52:71
    INDEX 01 63:57:70

  2. Let’s see if that works better with the code tag:


    REM DISCID B911C00C
    REM COMMENT "ExactAudioCopy v1.0b3"
    SONGWRITER "Brahms"
    PERFORMER "LPO; Adrian Boult"
    TITLE "Sir Adrian Boult: From Bach to Wagner, CD 11: Brahms: Serenades; Alto Rhapsody"
    FILE "Unknown Artist - Unknown Title.ape" WAVE
    TRACK 01 AUDIO
    TITLE "Serenade No. 1 in D major, Op. 11: Allegro molto"
    SONGWRITER "Brahms"
    FLAGS DCP
    INDEX 01 00:00:00
    TRACK 02 AUDIO
    TITLE "Scherzo (Allegro non troppo) & Trio (Poco più moto)"
    SONGWRITER "Brahms"
    PERFORMER "LPO; Adrian Boult"
    FLAGS DCP
    INDEX 01 12:02:57
    TRACK 03 AUDIO
    TITLE "Adagio non troppo"
    SONGWRITER "Brahms"
    PERFORMER "LPO; Adrian Boult"
    FLAGS DCP
    INDEX 01 18:07:24
    TRACK 04 AUDIO
    TITLE "Menuetto 1 & 2"
    SONGWRITER "Brahms"
    PERFORMER "LPO; Adrian Boult"
    FLAGS DCP
    INDEX 01 26:42:09
    TRACK 05 AUDIO
    TITLE "Scherzo (Allegro)"
    SONGWRITER "Brahms"
    PERFORMER "LPO; Adrian Boult"
    FLAGS DCP
    INDEX 01 30:38:69
    TRACK 06 AUDIO
    TITLE "Rondo (Allegro)"
    SONGWRITER "Brahms"
    PERFORMER "LPO; Adrian Boult"
    FLAGS DCP
    INDEX 01 33:13:67
    TRACK 07 AUDIO
    TITLE "Serenade No. 2 in A, Op. 16: Allegro moderato"
    SONGWRITER "Brahms"
    PERFORMER "LPO; Adrian Boult"
    FLAGS DCP
    INDEX 00 38:10:04
    INDEX 01 38:14:64
    TRACK 08 AUDIO
    TITLE "Scherzo (Vivace)"
    SONGWRITER "Brahms"
    PERFORMER "LPO; Adrian Boult"
    FLAGS DCP
    INDEX 01 47:13:73
    TRACK 09 AUDIO
    TITLE "Adagio non troppo"
    SONGWRITER "Brahms"
    PERFORMER "LPO; Adrian Boult"
    FLAGS DCP
    INDEX 01 49:38:10
    TRACK 10 AUDIO
    TITLE "Quasi menuetto"
    SONGWRITER "Brahms"
    PERFORMER "LPO; Adrian Boult"
    FLAGS DCP
    INDEX 01 54:21:15
    TRACK 11 AUDIO
    TITLE "Rondo (Allegro)"
    SONGWRITER "Brahms"
    PERFORMER "LPO; Adrian Boult"
    FLAGS DCP
    INDEX 01 58:30:40
    TRACK 12 AUDIO
    TITLE "Alto Rhapsody, Op. 53"
    SONGWRITER "Brahms"
    PERFORMER "Janet Baker; LPO; Adrian Boult"
    FLAGS DCP
    INDEX 00 63:52:71
    INDEX 01 63:57:70

Leave a Reply