Stunning HD-Vinyl 24/96 (BIS) JSB, WAM, Vivaldi, Rachmaninov a.o. – Solflöjt 2 (Sun-Flute 2) von Bahr/Fagius

Reposted with FF links
This is a great audiophile pearl and one of the best sounding records i ever heard  Merry Xmas and Happy New Year to you all, friends !

# Composer: Vivaldi, Bach, Mozart, Grieg, Rachmaninov, Sommerfeldt, von Koch
# Performers: Gunilla von Bahr, Hans Fagius
# Orchestra: Stockholms Kammarensemble
# Conductor: Jan-Olav Wedin
# Vinyl (1978)
# Number of Discs: 1
# Format: Flac
# Label: BIS
# DR-Analysis: DR: 12
# Size: 900 MB
# Scan: yes
# Server: FileFactory

Analyzed folder: /96k WAM-JSB-Vivaldi – Solflojt2
DR        Peak        RMS        Filename
DR14        -1.23 dB     -18.10 dB     A1 Vivaldi – Concerto C-Major P78 – Allegro non molto.wav
DR12        -1.12 dB     -17.54 dB     A2 Vivaldi – Concerto C-Major P78 – Largo.wav
DR13        -1.06 dB     -17.68 dB     A3 Vivaldi – Concerto C-Major P78 – Allegro molto.wav
DR11        -2.95 dB     -16.92 dB     A4 JSB – Air from Suite No3 D-Major.wav
DR12        -0.18 dB     -17.87 dB     A5 WAM – Andante for Flute and Orchestra KV 315.wav
DR13        -1.38 dB     -19.12 dB     B1 Grieg – Varen.wav
DR12        -0.39 dB     -18.25 dB     B2 Sommerfeldt – Spring Tunes for Flute Op44.wav
DR12        -0.12 dB     -15.64 dB     B3 Rachmaninov – Vocalise.wav
DR10        -7.20 dB     -22.49 dB     B4 von Koch – Cantilena Op78.wav
Number of files:    9
Official DR value:    DR12


Ripping Info

  • RCM: Okki Nokki
  • TT: Clearaudio Champion Level II + Special Edition Denon DL 103 -> Pro-Ject Phono Box II
  • Pre Amp: Unison Research Unico Pre (Tube)
  • Finals: Opera Consonance 9.9 Mono (Tube)
  • Speakers: Dali Helikon 400
  • Software: iZotope RX Advanced v2.02, Adobe Audition CS 5.5 -> Wave 32 bit/96 kHz
  • Light de-Clicking with ClickRepair, significant clicks manually removing, no De-Noising

You hear some clicks and pops here and there?
Who cares?
I better let some light anomalies instead of destroying the music.
Enjoy the music, not the ticks & pops.

  • Converting Wave 32bit/96kHz -> Flac 24bit/96kHz: Twisted Wave
  • Artwork: Sony Alpha 350, Epson Perfection V750 Pro, Photoshop CS 5.5

If you like what i do, please consider that a little donation would be very appreciate.
I reinvest all donations in maintenance of my rig, for purchasing cleaning solutions and, most important of all, purchasing of new vinyls.
Click on the “Donate”-button.
Thank you very much !

Download from FileFactory
3 archives

PW: LaWally

16 thoughts on “Stunning HD-Vinyl 24/96 (BIS) JSB, WAM, Vivaldi, Rachmaninov a.o. – Solflöjt 2 (Sun-Flute 2) von Bahr/Fagius

  1. Caro Rachmaninov,

    un augurio di buon Natale a te e agli straordinari “soci” di questo magnifico sito. E ancora grazie per tutta la stupenda musica che ci regalate ogni giorno.


    • you must make sure, that you have the right equipement, to listen to HD-music. Not every player and system can do this. You cannot bycicling with a bike with a Ferrari-engine 😉

  2. Thank you very, very much Racmaninov! And yes, Merry Christmas to you and all the folks who enjoy majestic classicals that is shared here!

  3. RACH; Since you highly regard the audio quality of this BIS vinyl might a 24 192 version appear some day??? Anyways i can always dream. RACH-ON…

Leave a Reply