Stunning HD-Vinyl 24/96 (Decca) – Georg Muffat – Florilegium Secundum (Academy Of Ancient Music)

front_small_boxset
Magical, simply great !

R.I.P. Maestro, we will miss you!

# Composer: Georg Muffat
# Ensemble: Academy Of Ancient Music
# Director: Christopher Hogwood
# Vinyl (1982)

# Number of Discs: 1
# Format: Flac (tracks)
# Label: Decca
# DR-Analysis: DR 14
# ASIN: B00D97NZ3K
# Size: 1.03 GB
# Scan: yes
# Server: FileFactory

 

Muffat’s “Florilegium Secundum” is one of the masterpieces of the early baroque era and here we have four suites, Fasciculus 1-4 each with their own particular chorus of strings and splendidly effective sounds. This thrilling disc is music of wonderful invention and beautiful harmony in what can only be termed as succinctly authoritative performances by the Academy of Ancient Music under their mentor Christopher Hogwood.

———————————————————————————————-
 Analyzed folder: /96k (DL103) Muffat – Florilegium Secundum – Academy Of Ancient Music
———————————————————————————————-
 DR        Peak        RMS        Filename
———————————————————————————————-
 DR14        -1.14 dB     -18.04 dB     A1 Muffat – Florilegium Secundum – Fasciculus 1, Nobilis Juventus.wav
 DR15        -0.66 dB     -18.60 dB     A2 Muffat – Florilegium Secundum – Fasciculus 2, Laeta Poesis.wav
 DR15        -1.03 dB     -20.33 dB     B1 Muffat – Florilegium Secundum – Fasciculus 3, Illustres Primitiae.wav
 DR14        -0.98 dB     -18.64 dB     B2 Muffat – Florilegium Secundum – Fasciculus 4, Splendiae Nuptiae.wav
———————————————————————————————-
 Number of files:    4
 Official DR value:    DR14
==============================================================================================

 

Ripping Infos

  • RCM: Okki Nokki
  • TT: Kenwood KD 7010
  • Cartridge: Denon DL103
  • Phono amp: Pro-Ject Phono Box RS
  • ADC/DAC: RME Fireface UC
  • Pre Amp: Unison Research Unico Pre (Tube)
  • Finals: Opera Consonance 9.9 Mono (Tube)
  • Speakers: Dali Helikon 400
  • Connections: MIT Terminator, Audioquest Emerald, Audioquest Quartz
  • Software: iZotope RX Advanced v2.02, Adobe Audition CS 5.5, Twisted Wave 1.9
  • Light de-Clicking with ClickRepair, significant clicks manually removing, no De-Noising

If You hear some clicks and pops here and there, Who cares?
Id rather have a few light anomalies instead of destroying the music. Enjoy the music, not the ticks & pops.

  • DR-Analisys before converting to Flac
  • Converting Wave -> Flac: Twisted Wave 1.9
  • Artwork: Sony Alpha 350, Epson Perfection V750 Pro, Photoshop CS 5.5

DONATION !
If you like what i do, please consider that a little donation would be very appreciate. I reinvest all donations in maintenance of my rig, for purchasing cleaning solutions and, most important of all, purchasing of new vinyls.
Click on the “Donate”-button. Thank you very much !


Download from FileFactory

3 archives
PW: LaWally

32 thoughts on “Stunning HD-Vinyl 24/96 (Decca) – Georg Muffat – Florilegium Secundum (Academy Of Ancient Music)”

  1. Je cherche depuis longtemps les LPs de William LAWES par The Consort of Musicke DECCA/L’Oiseau Lyre (Viol Consort Music ; Setts for Violins & Division Viols , etc)
    Please !

Leave a Reply