Stunning High-End Vinyl 24/96 (Audite) Musique de nuit

Re-posted, now on FF

# Composer: Charles Koechlin, Gabriel Fauré, Gabriel Pierné, Erik Satie
# Performer: Harp: Gisèle Herbert, Oboe: Lajos Lencesés
# Vinyl (1986)
# Number of Discs: 1
# Format: Flac
# Label: Audite
# DR-Analysis: DR 11
# ASIN: B00004WH83
# Size: 877 MB
# Scan: yes
# Server: FileFactory

One of the most beautiful sounding records I ever listened to.
Very hard to find on vinyl.


 Analyzed folder: /96kMuDeLaNu/96k Musique De La Nuit
 DR        Peak        RMS        Filename
 DR11        -3.45 dB     -18.44 dB     A1 Koechlin – Le repos de Tityre.wav
 DR11        -2.05 dB     -17.91 dB     A2 Faure – Piece for oboe and harp.wav
 DR12        -1.13 dB     -17.15 dB     A3 Faure – Sicilienne for oboe and harp.wav
 DR13        -1.30 dB     -19.30 dB     A4 Faure – Impromptu for harp.wav
 DR11        -4.85 dB     -19.32 dB     A5 Faure – Berceuse for oboe and harp.wav
 DR11        -5.08 dB     -19.96 dB     A6 Pierne – Serenade for oboe and harp.wav
 DR12        -1.83 dB     -19.75 dB     B1 Satie – Gnossienne 1.wav
 DR11        -8.46 dB     -26.90 dB     B2 Satie – Gnossienne 2.wav
 DR13        -4.75 dB     -24.42 dB     B3 Satie – Gnossienne 3.wav
 DR11        -0.20 dB     -15.52 dB     B4 Koechlin – Au loin.wav
 DR12        -2.33 dB     -18.70 dB     B5 Satie – Gymnopedie 1.wav
 DR10        -1.36 dB     -16.38 dB     B6 Satie – Gymnopedie 2.wav
 DR10        -5.76 dB     -21.39 dB     B7 Satie – Gymnopedie 3.wav
 Number of files:    13
 Official DR value:    DR11


Ripping Infos

  • RCM: Okki Nokki
  • TT: Clearaudio Champion Level II
  • Cartridge: Limited Edition Denon DL103 SA
  • Phono amp: Pro-Ject Phono Box II
  • Pre Amp: Unison Research Unico Pre (Tube)
  • Finals: Opera Consonance 9.9 Mono (Tube)
  • Speakers: Dali Helikon 400
  • Connections: MIT Terminator, Audioquest Emerald, Audioquest Quartz
  • Software: iZotope RX Advanced v2.02, Adobe Audition CS 5.5, Twisted Wave 1.9
  • Light de-Clicking with ClickRepair, significant clicks manually removing, no De-Noising

If You hear some clicks and pops here and there, Who cares?
Id rather have a few light anomalies instead of destroying the music. Enjoy the music, not the ticks & pops.

  • DR-Analisys before converting to Flac
  • Converting Wave -> Flac: Twisted Wave 1.9
  • Artwork: Sony Alpha 350, Epson Perfection V750 Pro, Photoshop CS 5.5

If you like what i do, please consider that a little donation would be very appreciate. I reinvest all donations in maintenance of my rig, for purchasing cleaning solutions and, most important of all, purchasing of new vinyls.
Click on the “Donate”-button. Thank you very much !

Download from FileFactory

3 archives
PW: LaWally

40 thoughts on “Stunning High-End Vinyl 24/96 (Audite) Musique de nuit

  1. Just quietly listening to this again and you are right Rach – a beautiful and magical sounding record. The Satie on harp are a stunning and perfect concept – at least as good as on the piano. A tribute he would have loved I suspect.

Leave a Reply