Super Audiophile HD-Vinyl 24/96 (EMI) Niccoló Paganini – Violin Concerto No. 1 (Perlman/Foster)

This his is the 1st classical rip made with the new cart Sumiko Black Bird

Brand new vinyl, opened and played for the 1st time for the blog

# Composer: Niccoló Paganini, Pablo De Sarasate
# Performer: Itzhak Perlman
# Orchestra: Royal Philharmonic Orchestra
# Conductor:
Lawrence Foster
# Vinyl (1972/2011)
# Number of Discs: 1
# Format: FLAC (Tracks)
# Label: Hi-Q Records/EMI
# DR-Analysis: DR 15
# Size: 994 MB
# Scan: yes
# Server: FileFactory

Born in Israel in 1945, Itzhak Perlman completed his initial training at the Academy of Music in Tel Aviv. He came to New York and soon was propelled into the international arena with an appearance on the Ed Sullivan Show in 1958. Following his studies at the Juilliard School with Ivan Galamian and Dorothy DeLay, Mr. Perlman won the prestigious Leventritt Competition in 1964, which led to a burgeoning worldwide career. Since then, Mr. Perlman has appeared with every major orchestra and in recitals around the world.

Of the many Paganini’s first violin concerto recordings, this Perlam surely deserves a special note.
This is the only other recording I would compare with Accardo’s DG one, which is considered the best overall recording considering the soloist and the orchestra.

Perlman and Accardo have different styles, and considering different points of the concerto this recording could be preferred to the other because of the special Perlman’s sound and tone, especially in the highest violin registers.

Coupling the violin concerto with the Sarasate’s Carmen Fantay may definitely bias the judgement in favor of Perlam: his performance in this piece is stunning and a pure gem. Initially I bought this disc only for this performance in the Carmen Fantasy which simply has no competitors in my opionion.

The orchestras sound is stronger in this recording, and more … present (sometime a bit too much). Anyway, there’s a good balance between the orchestra and the soloist, and one can best appreciate in the tic-tac clock-rythm in the third movement of the concerto.

Analyzed folder: /96kNiPa_ViCo1_Prlm/96k Paganini – Violin Concerto No.1 – Perlman
DR        Peak        RMS        Filename
DR14        -1.08 dB     -20.88 dB     A1 Paganini – Violin Concerto No. 1 – Allegro Maestoso.wav
DR16        -0.92 dB     -22.80 dB     A2 Paganini – Violin Concerto No. 1 – Adagio Espressivo.wav
DR15        -1.14 dB     -22.39 dB     B1 Paganini – Violin Concerto No. 1 – Rondo-Allegro Spiritoso.wav
DR17        -0.75 dB     -23.33 dB     B2 Bizet-Sarasate – Carmen Fantasy.wav
Number of files:    4
Official DR value:    DR15


Ripping Infos

  • RCM: Okki Nokki
  • TT: Clearaudio Champion Level II
  • NEW! Cartridge: Sumiko Black Bird
  • Phono stage: Pro-Ject Phono Box RS
  • ADC/DAC: RME Fireface UC
  • Pre Amp: Unison Research Unico Pre (Tube)
  • Finals: Opera Consonance 9.9 Mono (Tube)
  • Speakers: Dali Helikon 400
  • Connections: MIT Terminator, Audioquest Emerald, Audioquest Quartz
  • Software: iZotope RX Advanced v2.02, Adobe Audition CS 5.5, Twisted Wave 1.9
  • Light de-Clicking with ClickRepair, significant clicks manually removing, no De-Noising

If You hear some clicks and pops here and there, Who cares?
Id rather have a few light anomalies instead of destroying the music. Enjoy the music, not the ticks & pops.

  • DR-Analisys before converting to Flac
  • Converting Wave -> Flac: Twisted Wave 1.9
  • Artwork: Sony Alpha 350, Epson Perfection V750 Pro, Photoshop CS 5.5

If you like what i do, please consider that a little donation would be very appreciate. I reinvest all donations in maintenance of my rig, for purchasing cleaning solutions and, most important of all, purchasing of new vinyls.
Click on the “Donate”-button. Thank you very much !

Download from FileFactory
3 archives
PW: LaWally

31 thoughts on “Super Audiophile HD-Vinyl 24/96 (EMI) Niccoló Paganini – Violin Concerto No. 1 (Perlman/Foster)

Leave a Reply