Super HD-Vinyl 24/192 (Reference Recordings) Jean-Phillippe Rameau – Pieces de Clavecin: Music for Harpsichord

Merry Christmas everybody !!!!
Audiophile factor: very high!

# Composer: Jean-Phillippe Rameau
# Performer: Albert Fuller
# Vinyl (1988)
# Number of discs: 1
# Format: Flac
# Label: Reference Recordings
# DR-Analysis:
DR 13
# Size: 2.64 GB
# Scan: yes
# Server: FF

A demonstration of how a high-end record should sound. A pure feast for your equipment and your ears.


A1 La Dauphine 4:21
A2 Menuets 3:35
A3 La Cupis 6:35
A4 La Livri 2:28
A5 Les Sauvage 2:27
A6 L’Entretien Des Muses 5:41
A7 Les Cyclopes 3:58
B1 Allemande 6:33
B2 Courante 3:22
B3 Sarabande 3:12
B4 Les Trois Mains 3:53
B5 Fanfarinette 2:53
B6 La Triomphante 1:40
B7 Gavotte Avec Six Doubles 7:07

Analyzed folder: /192k Rameau – Pieces de clavecin – RR
DR        Peak        RMS        Filename
DR14        -1.01 dB     -18.40 dB     A1 La Dauphine.wav
DR14        -3.39 dB     -20.04 dB     A2 Menuets.wav
DR14        -2.38 dB     -20.04 dB     A3 La Cupis.wav
DR12        -3.71 dB     -19.65 dB     A4 La Livri.wav
DR13        -4.05 dB     -19.61 dB     A5 Les Sauvage.wav
DR14        -5.49 dB     -21.36 dB     A6 L’Entretien Des Muses.wav
DR13        -1.96 dB     -17.47 dB     A7 Les Cyclopes.wav
DR13        -6.20 dB     -21.20 dB     B1 Allemande.wav
DR13        -6.44 dB     -21.24 dB     B2 Courante.wav
DR13        -2.63 dB     -18.81 dB     B3 Sarabande.wav
DR13        -3.25 dB     -17.94 dB     B4 Les Trois Mains.wav
DR12        -6.81 dB     -21.44 dB     B5 Fanfarinette.wav
DR12        -2.92 dB     -16.94 dB     B6 La Triomphante.wav
DR13        -1.31 dB     -18.30 dB     B7 Gavotte Avec Six Doubles.wav
Number of files:    14
Official DR value:    DR13



Ripping Info


If You hear some clicks and pops here and there, Who cares?
Id rather have a few light anomalies instead of destroying the music.
Enjoy the music, not the ticks & pops.
I tend more and more, in the last time, to de-click with an automatic setting between 0.7 and 1.2 so you can say, my rips are like half rough rips.

  • Software: iZotope RX 4 Advanced, Adobe Audition CS 5.5, Twisted Wave 1.9
  • Very light de-clicking with iZotope, significant clicks manually removing, no de-noising
  • DR-Analisys before converting to Flac
  • Converting Wave -> Flac: Twisted Wave 1.9
  • Artwork: Sony Alpha 350, Epson Perfection V750 Pro, Photoshop CS 5.5

If you like what i do, please consider that a little donation would be very appreciate.
I reinvest all donations in maintenance of my rig, for purchasing cleaning solutions and, most important of all, purchasing of new vinyls.
Click on the “Donate”-button.

Thank you very much !

Download from FileFactory
7 archives
PW: LaWally

15 thoughts on “Super HD-Vinyl 24/192 (Reference Recordings) Jean-Phillippe Rameau – Pieces de Clavecin: Music for Harpsichord

  1. Thanks for the beautiful Music
    The French Baroque composer Jean-Philippe Rameau wrote three books of Pièces de clavecin for the harpsichord. The first, Premier Livre de Pièces de Clavecin, was published in 1706; the second, Pièces de Clavessin, in 1724; and the third, Nouvelles Suites de Pièces de Clavecin, in 1726 or 1727. They were followed in 1741 by Pièces de clavecin en concerts, in which the harpsichord can either be accompanied by violin and viola da gamba or played alone. An isolated piece, “La Dauphine”, survives from 1747.

Leave a Reply