Super HD-Vinyl 24/192 (Telarc) Peter Tchaikowsky – Symphony No. 5 (Previn)


There are so many good sets of the Tchaikovsky symphonies available nowadays at competitive prices that I wonder how many people buy one symphony alone any more. I would never be without Previn’s Royal Philharmonic recording because it is jut so spectacular. By spectacular I don’t just mean exciting and brash in the finale but totally expressive throughout the work from its somber opening and questioning second movement to its lyrical waltz movement.

Composer: Peter Ilyich Tchaikovsky
Orchestra: Royal Philharmonic Orchestra
Conductor: Andre Previn
Vinyl 1985
Number of discs: 1
Format: Flac
Label: Telarc
DR-Analysis: DR 13
Size: 1.96 GB
Scan: yes
Server: FF


This is Tchaikovsky’s great triumphant symphony and it follows the tradition of beginning in a minor key and ending in the major of the same key (E-flat). There is also a single theme that unites the four movements and which itself is transformed from the dark and mysterious source of the initial conflict to the exciting theme of the triumph. This theme is often discussed as the “Fate Theme”.There have been many things written about the possible source of Tchaikovsky’s inspiration, the nature of the problem and whether the eventual triumph is sincere or is merely resolved musically because that is what a symphony should do. Some notes discovered after his death may indicate that it is very personal in nature and not just a general mytho-heroic symphony about the spirit of man. I’ll leave that for everyone to study for themselves if they are so inclined. Nothing needs to be known specifically to enjoy the deep musical statement which is Tchaikovsky’s Fifth Symphony.

Tchaikovsky wrote this symphony after a dry period after the general failure of his Manfred Symphony in 1885, itself his first orchestral work since the Violin Concerto of 1878. The composer wondered if he was all played out and was full of self doubt, but Tchaikovsky was always haunted by such moods. Nevertheless he was determined to compose a symphony in the summer and fall of 1888 and was pleased to complete it. It was received with mixed feelings: in St.Petersburg there was not much of a response but in Hamburg, where even Brahms attended the premiere it was an enormous success. It continued like that with some reviewers praising it while others found the triumphant finale too wild, barbaric and noisy like some kind of Cossack fury. This could have been due to the tastes of the prim Victorian era because today I don’t think anyone would want the finale more buttoned down.

The finale is especially where Previn and the RPO shine. This is one of the most exciting and dynamic finales of this symphony I have ever heard. From tympani and brass to strings and winds, everyone plays with remarkable precision and at the same time with what seems at times to be total abandon. Telarc’s famed sound keeps everything so clear and transparent that you can hear every note of the score, even the harp.This is certainly one of Previn’s finest performances along with his Rachmaninov Second on EMI, his Vaughan Williams symphonies on RCA. I’d also like to put in a word for his too little known Mahler Fourth with Pittsburgh on EMI.

Even the filler deserves note. In this case it’s the opening march from Rimsky-Korsakov’s Tsar Saltan Suite (sometimes titled “The Tsar’s Farewell and Departure”). This five minute piece contains so much of the orchestral color and fairy tale sensibility that the composer was famous for and Previn gets every nuance right. Many conductors just march right through it in a shorter time, but Previn seems to sense every detail and plays it with all the attention he would give a major work. It’s ultimately intangible but there’s a sound and feeling here I don’t get from any other version.

 

 

Tracklist

  Symphony No. 5, Op. 64 (In E Minor)  
A1 I. Andante – Allegro Con Anima 15:03
A2 II. Andante Cantabile, Con Alcuna Licenza 13:13
B1 III. Valse: Allegro Moderato 5:50
B2 IV. Finale: Andante Maestoso – Allegro Vivace 11:39
B3 March From Tsar Saltan Suite, Op. 57

Composed By – Rimsky-Korsakov

4:44

———————————————————————————————-
Analyzed folder: /192k(Telarc) Tchaikowsky – Symphony No. 5 – Previn
———————————————————————————————-
DR Peak RMS Filename
———————————————————————————————-

DR12 -0.38 dB -18.47 dB A1 Symphony No. 5, Op. 64 (In E Minor) – I. Andante – Allegro Con Anima.aif
DR12 -1.00 dB -19.56 dB A2 Symphony No. 5, Op. 64 (In E Minor) – II. Andante Cantabile, Con Alcuna Licenza.aif
DR15 -2.08 dB -22.78 dB B1 Symphony No. 5, Op. 64 (In E Minor) – III. Valse- Allegro Moderato.aif
DR12 -0.54 dB -16.04 dB B2 Symphony No. 5, Op. 64 (In E Minor) – IV. Finale- Andante Maestoso – Allegro Vivace.aif
DR14 -0.73 dB -20.09 dB B3 Rimsky-Korsakov – March From Tsar Saltan Suite, Op. 57.aif
———————————————————————————————-

Number of files: 5
Official DR value: DR13

==============================================================================================

 

Credits

  • Composed By – Tchaikovsky (tracks: A1 to B2)
  • Conductor – André Previn
  • Engineer [Recording Engineer] – Jack Renner
  • Executive Producer – Robert Woods
  • Orchestra – Royal Philharmonic Orchestra
  • Producer [Recording Producer] – James Mallinson
Recorded at Walthamstowe Hall, London on September 26, 1984.

Ripping Info

Monitoring

A few words about the way i’ve been cleaning vinyl records and post-processing rips, since summer 2017: After washing and recording the vinyl, I use a kind of mixed cleaning of the rip, which consists of mostly manual rather than automatic de-clicking, (the latter only on unimportant passages, such as end of the groove, beginning and end of the songs, applause, speaking). I often leave the rips almost rough, de-clicking only the silences between the tracks. Never de-noising or/and EQ, as unfortunately some do. I prefer to hear a bit of quiet noises of the clean groove, that contain something of the music, rather than generate clinically clean files that may, eventually, sound a bit dead. If you do not agree, do not download my rips and buy instead digital files or CDs.
When I listen to music I “don’t hear” any noise: I enjoy the music 😀
I do not make rips for headphones!

  • Software: iZotope RX 5 Advanced, Adobe Audition CS 5.5, Twisted Wave 1.18
  • Very careful de-clicking with iZotope, significant clicks manually removed, never de-noising
  • DR-Analisys
  • Wave 32/192(32/384) —> Flac 24/96 & 24/192: Twisted Wave 1.18
  • Artwork: Sony Alpha 350, Epson Perfection V750 Pro, Photoshop CS 5.5

 

 

14 thoughts on “Super HD-Vinyl 24/192 (Telarc) Peter Tchaikowsky – Symphony No. 5 (Previn)

Leave a Reply