Super HD-Vinyl 24/96 (Audite) G. Mahler – Symphony No. 1 “Titan” (Kubelik)

A really great and audiophile performance, virgin vinyl 180 gramm, mint copy
– Reup after some little corrections – Now with FF links

# Composer: Gustav Mahler
# Orchestra: Bavarian Radio Symphony Orchestra
# Conductor: Rafael Kubelik

# Vinyl (1979/2004)
# Number of Discs: 1
# Format: Flac
# Label: Audite
# DR-Analysis: DR 13
# Size: 970 MB
# Scan: yes
# Server: FF

Analyzed folder: /Users/alfredo/Desktop/ HiResMusic/ FERTIG STELLEN/96k Mahler S1 Audite
DR        Peak        RMS        Filename
DR14        -1.19 dB     -21.43 dB     A1 Symphony No.1 In D – 1 Langsam-Schleppend.wav
DR13        -0.68 dB     -19.15 dB     A2 Symphony No.1 In D – 2 Kräftig Bewegt.wav
DR16        -7.09 dB     -28.47 dB     B1 Symphony No.1 In D – 3 Feierlich Und Gemessen-Ohne Zu Schleppen.wav
DR11        -1.05 dB     -17.18 dB     B2 Symphony No.1 In D – 4 Stürmisch Bewegt.wav
Number of files:    4
Official DR value:    DR13

Ripping Infos

  • RCM: Okki Nokki
  • TT: Clearaudio Champion Level II
  • System: Special Edition Denon DL 103
  • Phono stage: Pro-Ject Phono Box II
  • Pre Amp: Unison Research Unico Pre (Tube)
  • Finals: Opera Consonance 9.9 Mono (Tube)
  • Speakers: Dali Helikon 400
  • Software: iZotope RX Advanced v2.02, Adobe Audition CS 5.5 -> Wave 32 bit/96 kHz
  • Light de-Clicking with ClickRepair, significant clicks manually removing, no De-Noising

You hear some clicks and pops here and there? Who cares?
I better let some light anomalies instead of destroying the music. Enjoy the music, not the ticks & pops.

  • DR-Analisys before converting to Flac
  • Converting Wave 32bit/96kHz -> Flac 24bit/96kHz: Twisted Wave
  • Artwork: Sony Alpha 350, Epson Perfection V750 Pro, Photoshop CS 5.5

If you like what i do, please consider that a little donation would be very appreciate. I reinvest all donations in maintenance of my rig, for purchasing cleaning solutions and, most important of all, purchasing of new vinyls.
Click on the “Donate”-button. Thank you very much !

Download from FileFactory
3 archives
PW: LaWally

17 thoughts on “Super HD-Vinyl 24/96 (Audite) G. Mahler – Symphony No. 1 “Titan” (Kubelik)

  1. Hi Rach Go ahead …2 and 3 expected…maybe 4
    After the incredible 5th It’s a great pleasure to discover the first.
    Tomorrow for the listening report.
    Today is a great days to my vacation come back.
    Thank’s a lot for your gift 😆

  2. Sorry Rach the fourth doesn’t exist.
    Great level for this recording the sound is beautiful. 😆 I love the meedle of the first mouvement so qiet and peacefull before the end (clear brass section in the tutti).
    High level Rip as usual, you promise the rest in May. This is the reason because I insist, I’m sorry to do that. 😳
    Many thank’s 😉

  3. Hi Rach,

    thank You for this marvellous rips. I am wayting for the second and fourth, espacially for the third (my favourite) now, as rastabill do.
    Du hast zwei Mails auf der gewohnten Adresse. Könnte Dich u.U. interessieren!



  4. Thank you very much for posting these high quality rips… Any chance, please, of getting the rest of this series? As far as I know no 4 was never published, but Das Lied, and nos. 8 and 9 were… Should be most, most grateful….

    • There are the symphonies 1,2,3,5,6,7 but at this moment unavailable, due to HF that deleted my account. I’m too busy at this moment, but i think, in 2-3 weeks you can get them again.

  5. Dear Rach,
    How Beautiful, thank You so much for Yours extra work.
    I have one question for You,
    Please name one of Yours most liked personal LP rip available here & which You like the most, and enjoy it heart-fully listening to it . . . 🙂
    Thank You once more,

Leave a Reply