Super HD-Vinyl 24/96 (Audite) G. Mahler – Symphony No. 7 (Kubelik)

A great and audiophile performance, virgin vinyl 180g, never played
Reup, now with FF-links

# Composer: Gustav Mahler
# Orchestra: Bavarian Radio Symphony Orchestra
# Conductor: Rafael Kubelik

# Vinyls (1976/2003)
# Number of Discs: 2
# Format: Flac
# Label: Audite
# DR-Analysis: DR 12
# Size: 1.54 GB
# Scan: yes
# Server: FF

Analyzed folder: /Users/alfredo/Desktop/ HiResMusic/ FERTIG STELLEN/96k Mahler S7 Audite
DR        Peak        RMS        Filename
DR11        -0.80 dB     -15.06 dB     A Symphony No.7 in E minor – 1 Langsam (Adagio) Allegro con fuoco.wav
DR13        -1.06 dB     -19.75 dB     B Symphony No.7 in E minor – 2 Nachtmusik – Allegro moderato.wav
DR13        -1.06 dB     -18.54 dB     C1 Symphony No.7 in E minor – 3 Scherzo, Schattenhaft.wav
DR13        -2.01 dB     -21.08 dB     C2 Symphony No.7 in E minor – 4 Nachtmusik – Andante amoroso.wav
DR11        -0.66 dB     -14.99 dB     D Symphony No.7 in E minor – 5 Rondo – Finale.wav
Number of files:    5
Official DR value:    DR12

Ripping Infos

  • RCM: Okki Nokki
  • TT: Clearaudio Champion Level II
  • System: Special Edition Denon DL 103
  • Phono stage: Pro-Ject Phono Box II
  • Pre Amp: Unison Research Unico Pre (Tube)
  • Finals: Opera Consonance 9.9 Mono (Tube)
  • Speakers: Dali Helikon 400
  • Software: iZotope RX Advanced v2.02, Adobe Audition CS 5.5 -> Wave 32 bit/96 kHz
  • Light de-Clicking with ClickRepair, significant clicks manually removing, no De-Noising

You hear some clicks and pops here and there? Who cares?
I better let some light anomalies instead of destroying the music. Enjoy the music, not the ticks & pops.

  • DR-Analisys before converting to Flac
  • Converting Wave 32bit/96kHz -> Flac 24bit/96kHz: Twisted Wave
  • Artwork: Sony Alpha 350, Epson Perfection V750 Pro, Photoshop CS 5.5

If you like what i do, please consider that a little donation would be very appreciate. I reinvest all donations in maintenance of my rig, for purchasing cleaning solutions and, most important of all, purchasing of new vinyls.
Click on the “Donate”-button. Thank you very much !

Download from FileFactory
4 archives
PW: LaWally

10 thoughts on “Super HD-Vinyl 24/96 (Audite) G. Mahler – Symphony No. 7 (Kubelik)

  1. I’m getting a corrupted part 3. I’ve downloaded the file twice and tried extracting it with both WinRar and 7Zip, both to no avail. Any chance of re-upping?

Leave a Reply