HD-Vinyl 24/96 (Philips) Antonio Vivaldi – The 4 Seasons (Musici/Michelucci)

front-small-boxset
Many thanks to our friend Mats for this evergreen
I find Roberto Michelucci’s playing to be just fine, with plenty of expressiveness, although somewhat more stolid rythmically. Besides, I sometimes enjoy hearing the pieces played with a little less passion and a little more transparency, and this one (despite being older than the Carmirelli version) comes closer to capturing the lean style that modern-instruments versions began to adapt following the success of “original instruments” versions. This undescores that I Musici was ahead of its time in many respects by championing the small-ensemble approach to the Baroque and Early Classical (e.g., Mozart) repertoires.

Composer: Antonio Vivaldi
Performer: Roberto Michelucci
Orchestra: I Musici
Vinyl (1970)
Number of discs: 1
Format: Flac
Label: Philips
DR-Analysis:
DR 13
Size: 933 MB
Scan: yes
Server: FF

 

Tracklist

  “La Primavera” Concerto No. 1 In E, P. 241 (The Spring)  
A1 1. Allegro  
A2 2. Largo  
A3 3. Danza Pastorale (Allegro)  
  “L’Estate” Concerto No. 2 In G Minor, P. 336 (The Summer)  
A4 1. Allegro Non Molto  
A5 2. Adagio  
A6 3. Tempo Impetuoso D’Estate (Presto)  
  “L’Autunno” Concerto No. 3 In F, P. 257 (The Autumn)  
B1 1. Allegro  
B2 2. Adagio Molto  
B3 3. La Caccia (Allegro)  
  “L’Inverno” Concerto No. 4 In F Minor, P. 442 (The Winter)  
B4 1. Allegro Non Molto  
B5 2. Largo  
B6 3. Allegro

———————————————————————————————-
Analyzed folder: /96k Vivaldi – The 4 Seasons – I Musici, Michelucci
———————————————————————————————-
DR        Peak        RMS        Filename
———————————————————————————————-
DR14        -1.16 dB     -19.85 dB     A1 Spring 1. Allegro.aif
DR13        -11.03 dB     -27.78 dB     A2 Spring 2. Largo.aif
DR12        -1.84 dB     -19.04 dB     A3 Spring 3. Danza Pastorale (Allegro).aif
DR13        -2.83 dB     -22.36 dB     A4 Summer 1. Allegro Non Molto.aif
DR14        -4.00 dB     -25.06 dB     A5 Summer 2. Adagio.aif
DR12        -2.26 dB     -17.03 dB     A6 Summer 3. Tempo Impetuoso D’Estate (Presto).aif
DR14        -1.07 dB     -20.45 dB     B1 Autumn 1. Allegro.aif
DR10        -18.96 dB     -31.84 dB     B2 Autumn 2. Adagio Molto.aif
DR14        -0.38 dB     -18.97 dB     B3 Autumn 3. La Caccia (Allegro).aif
DR14        -2.13 dB     -20.42 dB     B4 Winter 1. Allegro Non Molto.aif
DR11        -12.48 dB     -27.50 dB     B5 Winter 2. Largo.aif
DR13        -1.53 dB     -20.23 dB     B6 Winter 3. Allegro.aif
———————————————————————————————-
Number of files:    12
Official DR value:    DR13
==============================================================================================

Credits

  • Composed By – Antonio Vivaldi
  • Illustration [Cover Illustration] – Jean van Blarenberghe
  • Orchestra – I Musici
  • Score Editor [Revised By], Liner Notes – Vittorio Negri
  • Violin – Roberto Michelucci

 

Ripping Info

Monitoring

  • Software: iZotope RX 4 Advanced, Adobe Audition CS 5.5, Twisted Wave 1.9
  • Super light de-clicking with iZotope, significant clicks manually removing, no de-noising
  • DR-Analisys before converting to Flac
  • Converting Wave -> Flac: Twisted Wave 1.9
  • Artwork: Sony Alpha 350, Epson Perfection V750 Pro, Photoshop CS 5.5

DONATION !
If you like what i do, please consider that a little donation would be very appreciate.
I reinvest all donations in maintenance of my rig, for purchasing cleaning solutions and, most important of all, purchasing of new vinyls.
Click on the “Donate”-button.

Thank you very much !

Download from FileFactory

PW: LaWally

11 thoughts on “HD-Vinyl 24/96 (Philips) Antonio Vivaldi – The 4 Seasons (Musici/Michelucci)”

  1. How many versions of the 4 Seasons does a man need? When does one say enough is enough? I will tell you when I find out 🙂
    Many thanks Alf, strangely this version has escaped me up to now and I can´t wait to give it a listen.

  2. Buon giorno, signor: It is Christmas here, and you are 6 hours or more ahead of me!
    So I wish you and your family all the best, even a few moments of silent prayer to the One Who was born our Mediator between God and mankind.
    And thank you once again for all the pleasure you send our way.
    This Vivaldi Seasons is fantastic.. I remember you saying you had many different such recordings.
    Now, I have one more.
    Grazie!
    Bob

Leave a Reply