Super HD-Vinyl 96/24 (Crystal Clear) Walter Süssking cond. Prokofiev/Ravel/De Falla

Rare & desirable record direct-to-disc by super label Crystal Clear
Reposted, now on FF

# Composer: Sergej Prokofiev, Maurice Ravel, Manuel De Falla
# Orchestra: London Philarmonic Orchestra
# Conductor: Walter Süsskind
# Vinyl (1978)
# Format: FLAC
# Label: Crystal Clear
# DR-Analysis: DR 15
never on CD
# Size: 589 MB
# Scan: yes
# Server: FileFactory

Analyzed folder: /96kMandK_ProRavFalSuss/96k Prokofiev-Ravel-Falla-Susskind
DR        Peak        RMS        Filename
DR16        -1.03 dB     -22.80 dB     A Prokofiev – Love for three oranges Suite.wav
DR15        -0.36 dB     -21.26 dB     B1 Ravel – La Valse.wav
DR14        -1.25 dB     -20.22 dB     B2 De Falla – Dance from ‘La vida breve’.wav
Number of files:    3
Official DR value:    DR15


Ripping Infos

  • RCM: Okki Nokki
  • TT: Clearaudio Champion Level II
  • System: Limited Edition Denon DL 103 SA
  • Phono stage: Pro-Ject Phono Box II
  • Pre Amp: Unison Research Unico Pre (Tube)
  • Finals: Opera Consonance 9.9 Mono (Tube)
  • Speakers: Dali Helikon 400
  • Connections: MIT Terminator, Audioquest Emerald, Audioquest Quartz
  • Software: iZotope RX Advanced v2.02, Adobe Audition CS 5.5, Twisted Wave 1.9
  • Light de-Clicking with iZotope, significant clicks manually removing, no De-Noising

If You hear some clicks and pops here and there, Who cares?
Id rather have a few light anomalies instead of destroying the music. Enjoy the music, not the ticks & pops

  • DR-Analisys before converting to Flac
  • Converting Wave -> Flac: Twisted Wave 1.9
  • Artwork: Sony Alpha 350, Epson Perfection V750 Pro, Photoshop CS 5.5

If you like what i do, please consider that a little donation would be very appreciate. I reinvest all donations in maintenance of my rig, for purchasing cleaning solutions and, most important of all, purchasing of new vinyls.
Click on the “Donate”-button. Thank you very much !

Download from FileFactory

2 archives
PW: LaWally

20 thoughts on “Super HD-Vinyl 96/24 (Crystal Clear) Walter Süssking cond. Prokofiev/Ravel/De Falla

Leave a Reply