Super HD-Vinyl 24/96 (Erato/RVC) Wolfgang Amadeus Mozart – Flute Concerto KV 314 (45 RPM)

Reposted with FF links

# Composer: Wolfgang Amadeus Mozart
# Performer: Andras Adorjan
# Orchestra: Orchestre de Chambre Jean-Francois Paillard
# Conductor: Jean-Francois Paillard
# 45 RPM Vinyl (1978)
# Number of Discs: 1
# Format: Flac
# Label: Erato/RVC
# DR-Analysis:
DR: 13
# Size: 777 MB
# Scan: yes
# Server: FileFactory

Analyzed folder: /96k Mozart – Flute Concerto No2 KV 314
DR        Peak        RMS        Filename
DR13        -1.54 dB     -19.46 dB     A1 WAM-Flute Concerto No2 Kv314 – Allegro Aperto.wav
DR12        -3.03 dB     -20.57 dB     A2 WAM-Flute Concerto No2 Kv314 – Andante ma non troppo.wav
DR13        -1.89 dB     -19.19 dB     B1 WAM-Flute Concerto No2 Kv314 – Allegro.wav
DR12        -2.17 dB     -19.01 dB     B2 WAM-Andante for Flute and Orchestra KV315.wav
Number of files:    4
Official DR value:    DR13


Ripping Info

  • RCM: Okki Nokki
  • TT: Clearaudio Champion Level II + Special Edition Denon DL 103 -> Pro-Ject Phono Box II
  • Pre Amp: Unison Research Unico Pre (Tube)
  • Finals: Opera Consonance 9.9 Mono (Tube)
  • Speakers: Dali Helikon 400
  • Software: iZotope RX Advanced v2.02, Adobe Audition CS 5.5 -> Wave 32 bit/96 kHz
  • Light de-Clicking with ClickRepair, significant clicks manually removing, no De-Noising

You hear some clicks and pops here and there?
Who cares?
I better let some light anomalies instead of destroying the music.
Enjoy the music, not the ticks & pops.

  • Converting Wave 32bit/96kHz -> Flac 24bit/96kHz: Twisted Wave
  • Artwork: Sony Alpha 350, Epson Perfection V750 Pro, Photoshop CS 5.5

If you like what i do, please consider that a little donation would be very appreciate.
I reinvest all donations in maintenance of my rig, for purchasing cleaning solutions and, most important of all, purchasing of new vinyls.
Click on the “Donate”-button.
Thank you very much !

Download from FileFactory
2 archives

PW: LaWally

18 thoughts on “Super HD-Vinyl 24/96 (Erato/RVC) Wolfgang Amadeus Mozart – Flute Concerto KV 314 (45 RPM)

  1. Back on Boxset and Divine surprise with this beautiful recording, Delicate reverb from the ingeneer … Great job for the vinyl Rip 😛
    Many many thanks Mr Rach for this High Def share
    Tonight the life seem to be better than before.

  2. Hello, a long time follower of your artistry in HRM and now here to keep pampering my ears with sublime music, unfortunately the links for this are dead.
    Thank you for everything you do, it is also a true pleasure to read your comments about the recordings because you transmit a lot of passion and love for music and that´s what it´s all about 🙂

    • No problem…I’m at this moment very busy, but I will replace all deleted links, one after the other….I only need some months to start

Leave a Reply