Super HD-Vinyls 96/24 (Audite) Gustav Mahler – Symphony No. 3 (Kubelik)


Brand new, unopened and mint – played for the 1st time – audiophile 180g Pressing Played now the 2nd time for a new rip, with the new engines from 2013/14 (better DR: 14—>16)To Jean-Luc

# Composer: Gustav Mahler
# Singer: Marjorie Thomas
# Orchestra: Symphony Orchestra of the Bavarian Radio
# Conductor: Rafael Kubelik
# Vinyl (1967/2004)
# Number of Discs: 2
# Format: Flac
# Label: Audite
# DR-Analysis: DR 16
# Size: 1.93 GB
# Scan: yes
# Server: FF


———————————————————————————————-
Analyzed folder: /96k Mahler S3 Kubelik
———————————————————————————————-
DR        Peak        RMS        Filename
———————————————————————————————-
DR17        -0.94 dB     -23.93 dB     A Symphony No. 3 in E flat major, Op. 97 – I Kraeftig-Entschieden.wav
DR16        -8.92 dB     -30.52 dB     B1 Symphony No. 3 in E flat major, Op. 97 – II Tempo di menuetto-Sehr muessig.wav
DR19        -1.93 dB     -27.76 dB     B2 Symphony No. 3 in E flat major, Op. 97 – III Comodo-Scherzando-Ohne Hast.wav
DR14        -10.72 dB     -31.83 dB     C1 Symphony No. 3 in E flat major, Op. 97 – IV Sehr langsam-Misterioso-Durchaus ppp.wav
DR14        -3.65 dB     -23.78 dB     C2 Symphony No. 3 in E flat major, Op. 97 – V Lustig im Tempo und keck im Ausdruck.wav
DR14        -1.15 dB     -22.16 dB     D Symphony No. 3 in E flat major, Op. 97 – VI Langsam-Ruhevoll-Empfunden.wav
———————————————————————————————-
Number of files:    6
Official DR value:    DR16
==============================================================================================


Ripping Infos

Monitoring

If You hear some clicks and pops here and there, Who cares?
Id rather have a few light anomalies instead of destroying the music.
Enjoy the music, not the ticks & pops.
I tend more and more, in the last time, to de-click with an automatic setting between 0.7 and 1.2 so you can say, my rips are like half rough rips.

  • Software: iZotope RX 4 Advanced, Adobe Audition CS 5.5, Twisted Wave 1.9
  • Very light de-clicking with iZotope, significant clicks manually removing, no de-noising
  • DR-Analisys before converting to Flac
  • Converting Wave -> Flac: Twisted Wave 1.9
  • Artwork: Sony Alpha 350, Epson Perfection V750 Pro, Photoshop CS 5.5

DONATION !
If you like what i do, please consider that a little donation would be very appreciate.
I reinvest all donations in maintenance of my rig, for purchasing cleaning solutions and, most important of all, purchasing of new vinyls.

Click on the “Donate”-button. Thank you very much !

Download from FileFactory
4 archives
PW: LaWally

 

37 thoughts on “Super HD-Vinyls 96/24 (Audite) Gustav Mahler – Symphony No. 3 (Kubelik)”

  1. Rachmaninov

    I get error on extract part 6 about corrupt file.
    I have downloaded from both sites and both give the same error.
    The archive doesn’t contain any recovery records, so it can’t be repaired.

    Could you verify this and upload a repaired version if it is indeed corrupted?

    Thank you

  2. I’m back up and running..
    Just curious: FF does not have a link 6.
    Was it a lost cause?
    Or is it still available and coming?
    I consider myself a friend to you; OK?
    Bob

    1. Hi Bob, always nice to “see” you 😉
      All parts are there, enjoy….in the next days I reup the symphonies 5,6,7 (they still have empty HF links)

    1. You have to have patience…it can happen that a ner reuploaded part is tomorrow again not available…I cannot reupload parts of rips the whole day long.
      Sorry….those FF issues must end, one fine day.

  3. Dear Rach,

    Part 1, 2 and 4 is now back online but the files seems damaged with CRC errors. Redownload twice and it’s still the same problem. Can you please check?

  4. Thank you so much for the glorious service you offer us. My only complaint is that whenever I download a vinyl rip to my Macs (using different machines) I always find that something is corrupted. Sometimes I can assemble a whole record from different files, but not always.

    1. I’m sorry for this, but the erros, whatever it is, is on your side…never had such complaints from other DLers.
      I can only suggest: don’t use JDL, DL directly from FF, DL in once, without breaks and continuing DLs…this causes often CCR errors.

Leave a Reply