Super HD-Vinyl 192/24 (Telarc) Camille Saint-Saens – (Organ)Symphony No. 3 (Ormandy/Murray)

Revisited – complete new rip (2016) in 24/192 with the Black Bird Gang.
Pay Attention on track four: Sub Bass – take care of your equipement (Amp & Speakers)

Enjoy the beauty, the purity and the sheer “Grandezza” of a perfect recording. Without any doubt, this is sonically and performancing a masterpiece. Made in 1980, the sound (from an unusual venue for the Philadelphia Orchestra, the St. Francis de Sales Church) remains “State Of The Art” 36 years later. It is, arguably, one of the very best recordings of the Philadelphia Orchestra ever made, irrespective of repertoire.

Composer: Camille Saint-Saens
Performer: Michael Murray
Orchestra: Philadelphia Orchestra
Conductor: Eugene Ormandy
Number of discs: 1
Vinyl (1980)
ormat: Flac
Label: Telarc
DR-Analysis: DR 14
Size: 1.35 GB
Scan: yes
Server: FileFactory

You may think: why High-Definition rip of a digital production, made in 1980 with (more than probably) 44.1k-16b ?
OK…forget all you know (or think to know) about recorded music, about “normal” HiFi and/or Highest Fidelity, unless you’ve heard this and compares it with the CD.

In every case it sounds clearer, fuller, deeper……..feel it, put your finger in, you nonbeliever Thomas.

The Saint-Saëns Symphony No. 3 (“Organ Symphony”) is without question the most famous, and most frequently-performed, work in the symphonic repertoire for this pairing of forces. Over the years, it has received the attention of many conductors. A quick search of available recordings shows that most speciaiists in the French repertoire have committed performances to disc: Charles Dutoit, Charles Munch, Georges Pretre, Andre Cluytens, Paul Paray, Jean Martinon, Sir Thomas Beecham, Yan Pascal Tortelier, Jean Fournet, Michel Plasson, Louis de Froment, Louis Fremaux (some of them with multiple recordings).

But, for all that “French specialization,” the all-time record for most recordings of this work is held by a Hungarian, Eugene Ormandy. The record (no pun intended) shows that Ormandy and the Philadelphia Orchestra recorded this work at least four times: twice with E. Power Biggs (the first of which, in the mid-’50s, is how I first came to know the work), once with Virgil Fox, and, finally (almost as a “career summation”) with Michael Murray on this splendid Telarc production.

Recorded at a time (1980) when Ormandy was preparing to relinquish his Philadelphia Orchestra Music Director position to his successor, Riccardo Muti, and when the novelty of digital recording was still unique enough that Telarc, in the vanguard of this technology, succeeded in securing recording rights for several major U.S. orchestras (including three of the “big five” if only for a limited number of releases), this performance is the equal of any, and the sound (from an unusual venue for the Philadelphia Orchestra, the St. Francis de Sales Church) remains “state of the art” 33 years later. It is, arguably, one of the very best recordings of the Philadelphia Orchestra ever made, irrespective of repertoire. And the Cavaillé-Coll organ installation at St. Francis de Sales is a “near-twin” to the instruments actually played countless times by Saint-Saëns in Paris (at Notre Dame and at the Madeleine church).

Saint-Saëns was both a child prodigy and a composer who lived, and composed over, a long and fruitful life. But he was “only” fifty when he wrote this final symphony of his; all of his subsequent works were in different genres. He thought it a fitting capstone to his symphonic output, and who are we to argue? Composed in 1888, when Johannes Brahms was the leading symphonist of the day and such young “upstarts” as Richard Strauss and Gustav Mahler were beginning to gain attention, Saint-Saëns’s compositional aesthetic for the work (save for the fact that it incorporates the organ) is almost “reactionary” by comparison. It is immediately accessible to virtually anyone, such is its appeal. An adjective often used to describe Saint-Saëns’s writing in this work is “suave”; I think this characterization is spot-on.

The Philadelphia Orchestra has rarely if ever sounded better than it does here. Famous for its “silky strings” during Ormandy’s tenure, the whole orchestra is a model of refinement so vital for realizing the suave writings of Saint-Saëns; all choirs of the orchestra exhibit this refinement at every dynamic level. The organ-orchestra balances are perfect (clearly, Telarc did a remarkable job in establishing these balances in what is often a tricky venue, that of a rather reverberent church). And the dynamic and frequency ranges of the recording are nothing short of astounding; of present-day “demo” quality despite the passage of 33 years.

Analyzed folder: /192k Saint-Saens – ‘Organ’ Symphony No. 3 – Murray-Ormandy
DR        Peak        RMS        Filename
DR15        -0.95 dB     -22.22 dB     A1 Adagio, allegro moderato, poco adagio – Part1.aif
DR13        -11.10 dB     -29.65 dB     A2 Adagio, allegro moderato, poco adagio – Part2.aif
DR15        -4.81 dB     -25.13 dB     B1 Allegro moderato, presto, maestoso, allegro, molto allegro – Part1.aif
DR14        -0.31 dB     -18.91 dB     B2 Allegro moderato, presto, maestoso, allegro, molto allegro – Part2.aif
Number of files:    4
Official DR value:    DR14

Ripping Info


If You hear some clicks and pops here and there, Who cares?
Id rather have a few light anomalies instead of destroying the music.
Enjoy the music, not the ticks & pops.
My rips are almost rough rips.

  • Software: iZotope RX 4 Advanced, Adobe Audition CS 5.5, Twisted Wave 1.9
  • Super light de-clicking with iZotope, significant clicks manually removing, no de-noising
  • DR-Analisys before converting to Flac
  • Converting Wave -> Flac: Twisted Wave 1.9
  • Artwork: Sony Alpha 350, Epson Perfection V750 Pro, Photoshop CS 5.5

If you like what i do, please consider that a little donation would be very appreciate.
I reinvest all donations in maintenance of my rig, for purchasing cleaning solutions and, most important of all, purchasing of new vinyls.
Click on the “Donate”-button.

Thank you very much !

Download from FileFactory
3 archives
PW: LaWally

53 thoughts on “Super HD-Vinyl 192/24 (Telarc) Camille Saint-Saens – (Organ)Symphony No. 3 (Ormandy/Murray)

  1. Alf, just finished listening to the last movement with the organ.
    It is unbelievably good. All sounds are clear, not mushed-together.

    This is beneficent rendering bot original and Hi Def.

    What a delight!

Leave a Reply