Vegh, Schiff: Mozart – Piano Concertos (9 CD box set, FLAC)

Vegh, Schiff: Mozart - Piano Concertos (9 CD box set, FLAC)
Vegh, Schiff: Mozart – Piano Concertos (9 CD box set, FLAC)

Composer: Wolfgang Amadeus Mozart
Performer: Andras Schiff
Orchestra: Camerata Academica des Mozartmuseums Salzburg
Conductor: Sandor Vegh
Audio CD
SPARS Code: DDD
Number of Discs: 9 CD box set
Format: FLAC (image+cue)
Label: Decca
ASIN: B000025706
Size: 2.21 GB
Recovery: +3%
Scan: yes
Server: datafile

[amazon-product]B000025706[/amazon-product]

CD 01
Piano Concerto No. 5 in D major, K175
Piano Concerto No. 6 in B flat major, K238
Piano Concerto No. 8 in C major, K246

CD 02
Piano Concerto No. 9 in E flat major, K271 ‘Jeunehomme’
Piano Concerto No. 17 in G major, K453

CD 03
Piano Concerto No. 11 in F major, K413
Piano Concerto No. 12 in A major, K414
Piano Concerto No. 13 in C major, K415

CD 04
Piano Concerto No. 14 in E flat major, K449
Piano Concerto No. 15 in B flat major, K450
Piano Concerto No. 16 in D major, K451

CD 05
Piano Concerto No. 18 in B flat major, K456
Piano Concerto No. 19 in F major, K459
Rondo in A major, K386

CD 06
Piano Concerto No. 20 in D minor, K466
Piano Concerto No. 21 in C major, K467

CD 07
Piano Concerto No. 22 in E flat major, K482
Piano Concerto No. 23 in A major, K488

CD 08
Piano Concerto No. 24 in C minor, K491
Piano Concerto No. 25 in C major, K503

CD 09
Piano Concerto No. 26 in D major, K537 ‘Coronation’
Piano Concerto No. 27 in D flat major, K595

datafile »

6 thoughts on “Vegh, Schiff: Mozart – Piano Concertos (9 CD box set, FLAC)”

  1. Thanks for this, lovely performances.

    Just a heads up there is a minor typo in the cue file for cd1 that disables it.

    In the cue sheet it looks like this:
    TRACK 04 AUDIO
    TITLE “Rondo in D major,K382”
    PERFORMER “A.Schiff/S.Vegh”
    ISRC GBF079010640
    INDEX 00 80:45:69
    INDEX 01 21:21:32

    Change INDEX OO as follows then it should be ok:
    INDEX 00 08:45:69

    HTH

  2. The CD9 cue sheet is also the same so I removed the pregap stuff (INDEX OO) as follows and tested in Cuesplitter and also with the foobar converter:

    REM DISCID 460E9C06
    REM COMMENT “ExactAudioCopy v0.99pb5”
    CATALOG 0028944814927
    PERFORMER “A.Schiff/S.Vegh”
    TITLE “Mozart: Piano concertos”
    FILE “A.Schiff S.Vegh – Mozart Piano concertos.flac” WAVE
    TRACK 01 AUDIO
    TITLE “Piano concerto n. 26 – Allegro”
    PERFORMER “A.Schiff/S.Vegh”
    ISRC GBF079311051
    INDEX 00 00:00:00
    INDEX 01 00:00:32
    TRACK 02 AUDIO
    TITLE “Piano concerto n. 26 – Larghetto”
    PERFORMER “A.Schiff/S.Vegh”
    ISRC GBF079311052
    INDEX 01 14:46:05
    TRACK 03 AUDIO
    TITLE “Piano concerto n. 26 – Allegretto”
    PERFORMER “A.Schiff/S.Vegh”
    ISRC GBF079311053
    INDEX 01 20:18:25
    TRACK 04 AUDIO
    TITLE “Piano concerto n. 27 – Allegro”
    PERFORMER “A.Schiff/S.Vegh”
    ISRC GBF078711021
    INDEX 01 30:34:32
    TRACK 05 AUDIO
    TITLE “Piano concerto n. 27 – Larghetto”
    PERFORMER “A.Schiff/S.Vegh”
    ISRC GBF078711022
    INDEX 01 45:20:65
    TRACK 06 AUDIO
    TITLE “Piano concerto n. 27 – Allegro”
    PERFORMER “A.Schiff/S.Vegh”
    ISRC GBF078711023
    INDEX 01 53:21:57

Leave a Reply