Very rare HD-Vinyl 24/96 (Supraphon) Bohuslav Martinu – Istar Ballet Suites 1 & 2

Grazie Armandinho – Thank you for your generosity, to have sent to me this very rare gem.
Reposted, now with FF links

# Composer: Bohuslav Martinu
# Orchestra: Brno State Philarmonic Orchestra
# Conductor: Jiri Waldhans
# Vinyl (1974)

# Number of Discs: 1
# Format: Flac
# Label: Supraphon
# DR-Analysis: DR 14
# ASIN: not found

# Size: 939 MB
# Scan: yes
# Server: FileFactory


A1 Istar Suite No1 – Andante
A2 Istar Suite No1 – Largo-Allegro
A3 Istar Suite No1 – Allegro

B1 Istar Suite No2 – Lento-Allegro-Grave-Allegro moderato
B2 Istar Suite No2 – Moderato-Tranquillo
B3 Istar Suite No2 – Moderato.wav

Analyzed folder: /Volumes/HDMUSIC/ Work on HiResMusic/96kMrtn_Istar/96k Martinu – Istar Ballet Suite
DR        Peak        RMS        Filename
DR14        -1.53 dB     -22.23 dB     A1 Istar Suite No1 – Andante.wav
DR15        -0.30 dB     -21.30 dB     A2 Istar Suite No1 – Largo-Allegro.wav
DR16        -0.42 dB     -21.89 dB     A3 Istar Suite No1 – Allegro.wav
DR14        -0.81 dB     -19.74 dB     B1 Istar Suite No2 – Lento-Allegro-Grave-Allegro moderato.wav
DR12        -1.59 dB     -19.62 dB     B2 Istar Suite No2 – Moderato-Tranquillo.wav
DR15        -0.74 dB     -22.65 dB     B3 Istar Suite No2 – Moderato.wav
Number of files:    6
Official DR value:    DR14

Ripping Infos

  • RCM: Okki Nokki
  • TT: Clearaudio Champion Level II
  • System: Special Edition Denon DL 103
  • Phono stage: Pro-Ject Phono Box II
  • Pre Amp: Unison Research Unico Pre (Tube)
  • Finals: Opera Consonance 9.9 Mono (Tube)
  • Speakers: Dali Helikon 400
  • Connections: MIT Terminator, Audioquest Emerald, Audioquest Quartz
  • Software: iZotope RX Advanced v2.02, Adobe Audition CS 5.5, Twisted Wave 1.9
  • Light de-Clicking with ClickRepair, significant clicks manually removing, no De-Noising

If You hear some clicks and pops here and there, Who cares?
Id rather have a few light anomalies instead of destroying the music. Enjoy the music, not the ticks & pops.

  • DR-Analisys before converting to Flac
  • Converting Wave -> Flac: Twisted Wave 1.9
  • Artwork: Sony Alpha 350, Epson Perfection V750 Pro, Photoshop CS 5.5

If you like what i do, please consider that a little donation would be very appreciate. I reinvest all donations in maintenance of my rig, for purchasing cleaning solutions and, most important of all, purchasing of new vinyls.
Click on the “Donate”-button. Thank you very much !

Download from FileFactory
3 archives

PW: LaWally

12 thoughts on “Very rare HD-Vinyl 24/96 (Supraphon) Bohuslav Martinu – Istar Ballet Suites 1 & 2

Leave a Reply