Vinyl 44/16 (Westminster) Franz Schubert – Works for two pianos (Badura-Skoda/Demus)

front-small-boxset
Many thanks to our friend Trottar for this

# Composer: Franz Schubert
# Pianists: Paul Badura-Skoda, Jörg Demus
# Vinyl (1956)
# Number of Discs: 1
# Format: Flac
# Label: Westminster
# DR-Analysis: DR 11
# ASIN:
not found
# Size: 283 MB
# Scan: yes
# Server: FileFactory

 

———————————————————————————————-
Analyzed folder: /44k Schubert – Paul Badura-Skoda and Joerg Demus
———————————————————————————————-
DR        Peak        RMS        Filename
———————————————————————————————-
DR12        -1.73 dB     -18.23 dB     A1 Grand Duo In C Major, Op. 140 – Allegro Moderato.wav
DR13        -3.28 dB     -21.57 dB     A2 Grand Duo In C Major, Op. 140 – Andante.wav
DR11        -2.03 dB     -16.85 dB     A3 Grand Duo In C Major, Op. 140 – Scherzo- Allegro Vivace.wav
DR11        -1.59 dB     -15.99 dB     A4 Grand Duo In C Major, Op. 140 – Allegro Vivace.wav
DR11        -1.46 dB     -16.35 dB     B1 Rondo In D Major, Op. 138.wav
DR11        -1.98 dB     -16.78 dB     B2 Rondo In A Major, Op. 107.wav
DR9        -1.48 dB     -12.89 dB     B3 Marche Caracteristique In C Major, Op. 121.wav
———————————————————————————————-
Number of files:    7
Official DR value:    DR11
==============================================================================================

Ripping Infos

Monitoring

If You hear some clicks and pops here and there, Who cares?
Id rather have a few light anomalies instead of destroying the music.
Enjoy the music, not the ticks & pops.
I tend more and more, in the last time, to de-click with an automatic setting between 0.7 and 1.2 so you can say, my rips are like half rough rips.

  • Software: iZotope RX 4 Advanced, Adobe Audition CS 5.5, Twisted Wave 1.9
  • Very light de-clicking with iZotope, significant clicks manually removing, no de-noising
  • DR-Analisys before converting to Flac
  • Converting Wave -> Flac: Twisted Wave 1.9
  • Artwork: Sony Alpha 350, Epson Perfection V750 Pro, Photoshop CS 5.5

DONATION !
If you like what i do, please consider that a little donation would be very appreciate.
I reinvest all donations in maintenance of my rig, for purchasing cleaning solutions and, most important of all, purchasing of new vinyls.
Click on the “Donate”-button.

Thank you very much !

Download from FileFactory

PW: LaWally

14 thoughts on “Vinyl 44/16 (Westminster) Franz Schubert – Works for two pianos (Badura-Skoda/Demus)

  1. Thank you very much for posting the two duo LPs. My research for the recording dates of the Bach concertos ends with no result. Early sixtees would be correct. All the Duo records of Badura- Skoda and Demus are still a must for collectors and Westminster in those days did very much for the Austrian
    Pianists in the 50tees and 60tees . You should post more of this
    two pianists if possible. Greetings Trottar

    • You have to be patient…this is an issue by FF, that occurs from time to time
      “The server hosting this file is temporarily unavailable due to system maintenance. Please try again shortly. “
      Same for your other reports of “failure”. I deleted them and I will delete them all in the future if they are due to the “maintenance” issue or due to a overbusy server.

Leave a Reply