Vinyls 16/44.1 (Decca) Richard Wagner – Der fliegende Holländer (Dorati)

London and Rysanek sung their roles for a long time until London lost the use of one his vocal chords and while singing at the Met. I’ve heard the competition and none measure up to this recording.
Sorry, “only” 16 bit & 44.1 kHz – made for my personal joy many years ago, as i had no mind for HD

Reposted on demand, now with FF links

# Composer: Richard Wagner
# Singer: Leonie Rysanek, Giorgio Tozzi, George London
# Orchestra: Royal Opera House Covent Garden
# Conductor: Antal Dorati
# Vinyls (196o)
# Format: Flac
# Label: Decca
# DR-Analysis: DR 12
# ASIN CD: B000023ZF6
# Size:
695 MB
# Scan: yes
# Server: FileFactory


Analyzed folder: /44kRiWa_DeFlHol_Dor/44k Wagner – The Flying Dutchman – Dorati
DR        Peak        RMS        Filename
DR11        -2.00 dB     -18.10 dB     sideA.wav
DR14        -0.00 dB     -18.39 dB     sideB.wav
DR13        -0.95 dB     -18.22 dB     sideC.wav
DR14        -0.00 dB     -19.37 dB     sideD.wav
DR11        -0.00 dB     -15.93 dB     sideE.wav
DR12        -0.18 dB     -17.25 dB     sideF.wav
Number of files:    6
Official DR value:    DR12

Ripping Infos

  • RCM: Okki Nokki (L’art du son, Clearaudio’s Diamond Cleaner)
  • TT: Clearaudio Champion Level II
  • Cartridge: Sumiko Blue Point Evo III
  • Phono amp: Pro-Ject Phono Box II
  • Pre Amp: Unison Research Unico Pre (Tube)
  • Finals: Opera Consonance 9.9 Mono (Tube)
  • Speakers: Dali Helikon 400
  • Connections: MIT Terminator, Audioquest Emerald, Audioquest Quartz
  • Software: iZotope RX Advanced v2.02, Adobe Audition CS 5.5, Twisted Wave 1.9
  • Light de-Clicking with ClickRepair, significant clicks manually removing, no De-Noising

If You hear some clicks and pops here and there, Who cares?
Id rather have a few light anomalies instead of destroying the music. Enjoy the music, not the ticks & pops.

  • DR-Analisys before converting to Flac
  • Converting Wave -> Flac: Twisted Wave 1.9
  • Artwork: Sony Alpha 350, Epson Perfection V750 Pro, Photoshop CS 5.5

If you like what i do, please consider that a little donation would be very appreciate.
I reinvest all donations in maintenance of my rig, for purchasing cleaning solutions and, most important of all, purchasing of new vinyls.

Click on the “Donate”-button. Thank you very much !

Download from FileFactory
PW: LaWally

10 thoughts on “Vinyls 16/44.1 (Decca) Richard Wagner – Der fliegende Holländer (Dorati)

  1. Thanks so much dear Rachmaniniv for re-uploading Wagner’s early gems! Realy appreciate! Cannot express how tahnkfull i am! You’ve made my day! Health and joy!

  2. my favourite Holländer also was recorded and released by Decca, but some 15 yrs earlier. it’s a rendition done by Ursuleac and Hotter singing and Krauss conducting.
    one could never forget their duo once heard…

Leave a Reply