Zelenka – Complete Orchestral Works (3 CD, APE)

Zelenka: Complete Orchestral Works (3 CD, APE)
Zelenka: Complete Orchestral Works (3 CD, APE)

Composer: Jan Dismas Zelenka
Orchestra: Das Neu-Eröffnete Orchestre
Conductor: Jürgen Sonnentheil
Audio CD
SPARS Code: DDD
Number of Discs: 3
Format: APE (image+cue)
Label: Cpo Records
ASIN: B00006C74S
Size: 792 MB
Recovery: +3%
Scan: yes
Server: datafile

[amazon-product]B00006C74S[/amazon-product]

CD 01
01-07 Capriccio No. 2
08-09 Hipocondrie a 7 concertanti
11-12 Concerto a 8 concertanti
13-17 Capriccio No. 3

CD 02
01-05 Capriccio No. 5
06-10 Symphonie a 8 concertanti
11-15 Capriccio No. 1

CD 03
01-05 Ouverture a 7 concertanti
06 “Symphonia” from “Melodrama de S. Wenceslao”
07-13 Capriccio No. 4

datafile »

7 thoughts on “Zelenka – Complete Orchestral Works (3 CD, APE)”

  1. Thanks Whatever for this huge survey. There is an error in the volume 2 cue file that stops conversion of track 9.
    correct text is below:
    REM COMMENT Exact Audio Copy
    PERFORMER “Jan Dismas Zelenka”
    TITLE “Orchestral Works Vol. 2 – Jurgen Sonnontheil”
    FILE “Image2.ape” WAVE
    TRACK 01 AUDIO
    TITLE “Capriccio No. 5 in G major (ZWV 190): [Allegro]”
    INDEX 01 00:00:00
    TRACK 02 AUDIO
    TITLE “Capriccio No. 5 in G major (ZWV 190): Menuett 1 – Menuett 2- Menuett 1 da capo”
    INDEX 01 04:54:42
    TRACK 03 AUDIO
    TITLE “Capriccio No. 5 in G major (ZWV 190): Il Contento – Trio – Il Contento da capo”
    INDEX 01 08:01:65
    TRACK 04 AUDIO
    TITLE “Capriccio No. 5 in G major (ZWV 190): Il Furibundo”
    INDEX 01 11:48:15
    TRACK 05 AUDIO
    TITLE “Capriccio No. 5 in G major (ZWV 190): Villanella – Trio – Villanella da capo”
    INDEX 01 13:24:62
    TRACK 06 AUDIO
    TITLE “Simphonie a 8 Concertanti in A minor (ZWV 189): [Allegro]”
    INDEX 01 17:14:02
    TRACK 07 AUDIO
    TITLE “Simphonie a 8 Concertanti in A minor (ZWV 189): Andante”
    INDEX 01 27:06:50
    TRACK 08 AUDIO
    TITLE “Simphonie a 8 Concertanti in A minor (ZWV 189): Capriccio. Tempo di Gavotta”
    INDEX 01 30:50:30
    TRACK 09 AUDIO
    TITLE “Simphonie a 8 Concertanti in A minor (ZWV 189): Aria da Capriccio [Andante – Allegro]”
    INDEX 01 33:14:52
    TRACK 10 AUDIO
    TITLE “Simphonie a 8 Concertanti in A minor (ZWV 189): [Menuett 1] – [Menuett 2] – [Menuett 1 da capo]”
    INDEX 01 39:38:47
    TRACK 11 AUDIO
    TITLE “Capriccio No. 1 in D major (ZWV): Andante – [Allegro]”
    INDEX 01 42:54:67
    TRACK 12 AUDIO
    TITLE “Capriccio No. 1 in D major (ZWV): Paysan”
    INDEX 01 49:49:30
    TRACK 13 AUDIO
    TITLE “Capriccio No. 1 in D major (ZWV): Aria”
    INDEX 01 51:05:20
    TRACK 14 AUDIO
    TITLE “Capriccio No. 1 in D major (ZWV): Bourree”
    INDEX 01 53:56:62
    TRACK 15 AUDIO
    TITLE “Capriccio No. 1 in D major (ZWV): Menuett 1 – Menuett 2- Menuett 1 da capo”
    INDEX 01 55:16:42

Leave a Reply